Самые активные релизы за неделю
Нет релизов к показу

:: Детали раздачи
Раздача является мультитрекерной — учтите, количество раздающих не будет совпадать с количеством участников на сайте (скачивание на клиентской стороне зависит от настроек µTorrent клиент программы, настройки -> Включить DHT, Обмен пирами и Поиск лок-х пиров).
Если висит надпись, пиры по нулям - не бойтесь, возможность скачать повторно раздачу - есть. Попробуйте, в случае отказа - прокоментируйте или нажмите на "Позвать скачавших".

Круиз (трио) - Дискография (1986-1989) FLAC

Скачать Скачать .torrent файл (основная ссылка для скачивания файла)
Смотреть / Слушать онлайн просмотр (ссылка для просмотра файла через плагин 'Torrent Stream')
Magnet-ссылка (альтернативная ссылка для скачивания файла)
Теги / Метки thrash, heavy-metal, 1986
Описание
Круиз (трио) - Дискография (1986-1989) FLAC
Название: Дискография

Исполнитель: Круиз

Год: 1986-1989

Жанр: Thrash/Heavy-metal
Страна: СССР


Продолжительность: 06:14:24

Формат/Кодек: FLAC (image+.cue)

Битрейт аудио: Lossless


Официальный сайт


Трэклист:

1987 - Круиз-1 (2007 remaster vinyl CD-maximum)


Exact Audio Copy V0.99 prebeta 1 from 25. May 2007


Отчёт EAC об извлечении, выполненном 4. января 2011, 16:47


Круиз / Круиз - 1


Дисковод: ASUS DRW-2014S1 Adapter: 1 ID: 0


Режим чтения : Достоверность

Использование точного потока : Да

Отключение кэша аудио : Да

Использование указателей C2 : Нет


Коррекция смещения при чтении : 6

Способность читать области Lead-in и Lead-out : Нет

Заполнение пропущенных сэмплов тишиной : Да

Удаление блоков с тишиной в начале и конце : Нет

Интерфейс : Встроенный Win32-интерфейс для Win NT/2000


Выходной формат : Внутренние WAV-операции

Формат сэмплов : 44.100 Гц; 16 бит; стерео


TOC извлечённого CD


Трек | Старт | Длительность | Начальный сектор | Конечный сектор

---------------------------------------------------------------------

1 | 0:00.00 | 4:44.17 | 0 | 21316

2 | 4:44.17 | 4:24.38 | 21317 | 41154

3 | 9:08.55 | 4:50.22 | 41155 | 62926

4 | 13:59.02 | 5:42.18 | 62927 | 88594

5 | 19:41.20 | 10:10.45 | 88595 | 134389

6 | 29:51.65 | 3:33.25 | 134390 | 150389

7 | 33:25.15 | 4:36.47 | 150390 | 171136

8 | 38:01.62 | 6:09.31 | 171137 | 198842

9 | 44:11.18 | 3:11.66 | 198843 | 213233

10 | 47:23.09 | 4:20.33 | 213234 | 232766

11 | 51:43.42 | 4:13.32 | 232767 | 251773

12 | 55:56.74 | 3:26.14 | 251774 | 267237

13 | 59:23.13 | 5:56.23 | 267238 | 293960

14 | 65:19.36 | 4:06.40 | 293961 | 312450


Характеристики диапазона извлечения и сообщения об ошибках


Выбранный диапазон


Имя файла D:MusicКруизCD LosLessКруиз (Трио)1987 - Круиз-1 (2007 remaster vinyl CD-maximum)Круиз - Круиз - 1.wav


Пиковый уровень 100.0 %

Качество диапазона 100.0 %

CRC копии 9DAD9E5F

Копирование... OK



AccurateRip: сводка


Трек 1 точное извлечение (доверие 2) [8E497836]

Трек 2 точное извлечение (доверие 2) [658CA637]

Трек 3 точное извлечение (доверие 2) [372E819D]

Трек 4 точное извлечение (доверие 2) [19A2D8DC]

Трек 5 точное извлечение (доверие 2) [23CAB608]

Трек 6 точное извлечение (доверие 2) [9DF70688]

Трек 7 точное извлечение (доверие 2) [40AF6541]

Трек 8 точное извлечение (доверие 2) [471BB65E]

Трек 9 точное извлечение (доверие 2) [D77A3B6C]

Трек 10 точное извлечение (доверие 2) [25C94938]

Трек 11 точное извлечение (доверие 2) [C743A7A8]

Трек 12 точное извлечение (доверие 2) [0C166B10]

Трек 13 точное извлечение (доверие 2) [2FB1E391]

Трек 14 точное извлечение (доверие 2) [FE5D6B24]


Ошибок не произошло


Конец отчёта


1988 - Kruiz (2007 remaster vinyl CD-maximum


Exact Audio Copy V0.99 prebeta 1 from 25. May 2007


Отчёт EAC об извлечении, выполненном 4. января 2011, 16:57


Kruiz / Kruiz


Дисковод: ASUS DRW-2014S1 Adapter: 1 ID: 0


Режим чтения : Достоверность

Использование точного потока : Да

Отключение кэша аудио : Да

Использование указателей C2 : Нет


Коррекция смещения при чтении : 6

Способность читать области Lead-in и Lead-out : Нет

Заполнение пропущенных сэмплов тишиной : Да

Удаление блоков с тишиной в начале и конце : Нет

Интерфейс : Встроенный Win32-интерфейс для Win NT/2000


Выходной формат : Внутренние WAV-операции

Формат сэмплов : 44.100 Гц; 16 бит; стерео


TOC извлечённого CD


Трек | Старт | Длительность | Начальный сектор | Конечный сектор

---------------------------------------------------------------------

1 | 0:00.00 | 7:04.28 | 0 | 31827

2 | 7:04.28 | 3:47.17 | 31828 | 48869

3 | 10:51.45 | 2:41.65 | 48870 | 61009

4 | 13:33.35 | 8:16.55 | 61010 | 98264

5 | 21:50.15 | 4:04.55 | 98265 | 116619

6 | 25:54.70 | 3:53.30 | 116620 | 134124

7 | 29:48.25 | 3:22.15 | 134125 | 149289

8 | 33:10.40 | 7:14.50 | 149290 | 181889

9 | 40:25.15 | 4:03.48 | 181890 | 200162

10 | 44:28.63 | 4:40.15 | 200163 | 221177

11 | 49:09.03 | 4:01.60 | 221178 | 239312

12 | 53:10.63 | 3:46.15 | 239313 | 256277


Характеристики диапазона извлечения и сообщения об ошибках


Выбранный диапазон


Имя файла D:MusicКруизCD LosLessКруиз (Трио)1988 - Kruiz (2007 remaster vinyl CD-maximum)Kruiz - Kruiz.wav


Пиковый уровень 99.9 %

Качество диапазона 100.0 %

CRC копии 008F3FAA

Копирование... OK



AccurateRip: сводка


Трек 1 точное извлечение (доверие 6) [84A3D340]

Трек 2 точное извлечение (доверие 6) [9CAD9A80]

Трек 3 точное извлечение (доверие 6) [3C4BECBD]

Трек 4 точное извлечение (доверие 6) [DAB65D05]

Трек 5 точное извлечение (доверие 6) [F757D67B]

Трек 6 точное извлечение (доверие 5) [6744A46F]

Трек 7 точное извлечение (доверие 5) [33406613]

Трек 8 точное извлечение (доверие 5) [ED02E4FD]

Трек 9 точное извлечение (доверие 5) [EC3EFFD2]

Трек 10 точное извлечение (доверие 6) [515B7CA9]

Трек 11 точное извлечение (доверие 6) [2155A863]

Трек 12 точное извлечение (доверие 6) [47E61A45]


Ошибок не произошло


Конец отчёта


1989 - Culture Shock ALS (переиздание 2008)


Отчёт EAC об извлечении, выполненном 2. декабря 2008, 17:34 для диска:

Kruiz / Culture Shock ALS


Дисковод: _NEC DVD_RW ND-3550A Adapter: 0 ID: 0

Режим чтения: Достоверный (C2: нет, Точный поток: да, Отключение кэша: да)

Коррекция смещения при чтении: 48

Способность читать области Lead-in и Lead-out : Нет


Выходной формат: Внутренние WAV-операции

44.100 Гц; 16 бит; стерео


Другие параметры:

Заполнение пропущенных сэмплов тишиной : Да

Удаление блоков с тишиной в начале и конце : Нет

Встроенный Win32-интерфейс для Win NT/2000


Характеристики диапазона извлечения и сообщения об ошибках

Выбранный диапазон

Имя файла H:Образы _ резерв!РазборКруиз (Трио)1989 - Culture Shock ALS [переиздание 2008]Kruiz - Culture Shock ALS.wav


Пиковый уровень 98.7 %

Качество диапазона 99.9 %

CRC 3BD68D53

Копирование... OK


Ошибок не произошло


Конец отчёта


1987 - Железный Рок (studio) (Karma Records, Pirate)


Отчёт EAC об извлечении, выполненном 28. февраля 2010, 16:06 для диска:

Круиз / Железный Рок


Дисковод: HL-DT-STDVD-RAM GSA-H55N Adapter: 1 ID: 0

Режим чтения: Достоверный (C2: нет, Точный поток: да, Отключение кэша: да)

Коррекция смещения при чтении: 102

Способность читать области Lead-in и Lead-out : Нет


Выходной формат: Внутренние WAV-операции

44.100 Гц; 16 бит; стерео


Другие параметры:

Заполнение пропущенных сэмплов тишиной : Да

Удаление блоков с тишиной в начале и конце : Нет

Встроенный Win32-интерфейс для Win NT/2000


Характеристики диапазона извлечения и сообщения об ошибках

Выбранный диапазон

Имя файла C:Music MP3Круиз - Железный Рок.wav


Пиковый уровень 100.0 %

Качество диапазона 100.0 %

CRC 4A8BC9B8

Копирование... OK


Ошибок не произошло


Конец отчёта



1989 - Culture Shock - Alien Life Style (CD MEDIA Version)


Отчёт EAC об извлечении, выполненном 21. февраля 2010, 13:53 для диска:

Kruiz / Culture Shock - Alien Life Style


Дисковод: HL-DT-STDVD-RAM GSA-H55N Adapter: 1 ID: 0

Режим чтения: Достоверный (C2: нет, Точный поток: да, Отключение кэша: да)

Коррекция смещения при чтении: 102

Способность читать области Lead-in и Lead-out : Нет


Выходной формат: Внутренние WAV-операции

44.100 Гц; 16 бит; стерео


Другие параметры:

Заполнение пропущенных сэмплов тишиной : Да

Удаление блоков с тишиной в начале и конце : Нет

Встроенный Win32-интерфейс для Win NT/2000


Характеристики диапазона извлечения и сообщения об ошибках

Выбранный диапазон

Имя файла C:Music MP3Kruiz - Culture Shock - Alien Life Style.wav


Пиковый уровень 100.0 %

Качество диапазона 99.9 %

CRC C7223E5E

Копирование... OK


Ошибок не произошло


Конец отчёта


1986 - Концерт в Ленинграде (неофициальный Live)


Started at: пятница, 15. 07. 2011. - 21:27.49

1 file found


1 -===- D:MusicКруизCD LosLessКруиз (Трио)1986 - Концерт в Ленинграде 1986Круиз - Концерт в Ленинграде 1986.wav

Conclusion: this track is CDDA with probability 100%


Finished at: пятница, 15. 07. 2011. - 21:32.23 (operation time: 0:04.34)


1989 - Железный рок (LIVE)
Скриншоты Круиз (трио) - Дискография (1986-1989) FLAC #0
Связанные раздачи
Загрузка / Обновление
Категория Музыка / Мультимедиа RSS лента
Добавлен (5 лет, 8 месяцев назад)
Просмотров 409 раз (a)
Взят 14 раз (a)
Файлы 20, 2.55 GB (2 736 924 232 байт)
Раздал ViKa  (Искать торренты)
Участники
Раздают (отдают): 0 (3), Скачивают (качают): 0 (1), Завершено: 0 (29)
Просматривают

« Круиз / Live In Omsk (1986) DVD5 -†- ¿? -†- Круиз - Kruiz (1988) FLAC »

:: Список Комментариев
Нет комментариев.

 Нет комментариев

Счетчики
Яндекс.Метрика


Поделитесь в социальных сетях


Торрент клиент

Торрент клиент для macOS

Быстрый Поиск





Спасибо Вам
Мы благодарны этим людям в поддержке сайта:
nighstar
Попади и ты в этот блок, поставь оценку 5 и получи 300 MB к отдаче:
Войти на сайт сейчас.

Правообладателям
По всем вопросам сотрудничества, удаления авторских файлов "пачкой", просьба отписаться по адреcу:
[email protected]

Наши группы в VK, OK