Самые активные релизы за неделю
Нет релизов к показу

:: Детали раздачи
Раздача является мультитрекерной — учтите, количество раздающих не будет совпадать с количеством участников на сайте (скачивание на клиентской стороне зависит от настроек µTorrent клиент программы, настройки -> Включить DHT, Обмен пирами и Поиск лок-х пиров).
Если висит надпись, пиры по нулям - не бойтесь, возможность скачать повторно раздачу - есть. Попробуйте, в случае отказа - прокоментируйте или нажмите на "Позвать скачавших".

EVE - Scorpion [2001 / FLAC / 1411] [Hip-Hop]

Скачать Скачать .torrent файл (основная ссылка для скачивания файла)
Смотреть / Слушать онлайн просмотр (ссылка для просмотра файла через плагин 'Torrent Stream')
Magnet-ссылка (альтернативная ссылка для скачивания файла)
Теги / Метки hip-hop, 2001
Описание
EVE - Scorpion [2001 / FLAC / 1411] [Hip-Hop]
Артист : EVE
Название : Scorpion
Жанр : Hip-Hop
Год выхода : 2001
Label : Ruff Ryders

О музыке :
EVE
Eve Jihan Jeffers (born November 10, 1978), is an American recording artist and actress. Her first three albums have reached a total of over 8 million albums sold worldwide. She has also achieved success in fashion as she started a clothing line titled "Fetish." She ranked number 46 on VH1's "50 Greatest Women Of The Video Era" show list. As an actress, she is best known for her roles as Terri Jones in the films Barbershop and Barbershop 2: Back in Business, and as Shelley Williams on the UPN television sitcom Eve.Eve first appeared on the Bulworth soundtrack as EVE of destruction while signed to Dr Dre's Aftermath Entertainment she did not see much action with big releases soon coming from Dr Dre so she grouped up with DMX and the Ruff Ryders on her first single as a ruff ryder DJ Clue's The Professional, along with other Ruff Ryders' compilations. Her next single, "What Ya Want", featuring Nokio the N-Tity of Dru Hill, became a top 40 hit on the U.S. Billboard 200 peaking at 29. Her 1999 debut, Let There Be Eve…Ruff Ryders' First Lady, was an unprecedented success, becoming the second rap album by a woman to enter the Billboard 200 at number one.





http://zamolxismd.org/m/i2.imageban.ru/out/2011/02/16/50c40a24ae312f356aed06b120841aeb.png






01. Intro [00:18]
02. Cowboy [03:15]
03. Who's That Girl? [04:42]
04. Let Me Blow Ya Mind (Featuring Gwen Stefani) [03:50]
05. 3 Way (Skit) (Featuring Erex, Stevie J. Eve) [00:41]
06. You Had Me, You Lost Me [04:21]
07. Got What You Need (Featuring Drag-On) [03:52]
08. Frontin' (Skit) [00:43]
09. Gangsta Bitches (Featuring Da Brat Trina) [04:24]
10. That's What It Is (Featuring Styles Of The Lox) [03:40]
11. Scream Double R (Featuring DMX) [03:41]
12. Thug In The Street (Featuring The Lox Drag-On) [05:02]
13. No, No, No (Featuring Damian Stephen Marley) [05:37]
14. You Ain't Gettin' None [04:11]
15. Life Is So Hard (Featuring Teena Marie) [04:55]
16. Be Me (Featuring Mashonda Tifrere) [04:09]


EAClog


Exact Audio Copy V0.99 prebeta 5 from 4. May 2009
EAC extraction logfile from 30. May 2010, 15:58
Eve / Scorpion
Used drive: TSSTcorpCDDVDW SH-S202J Adapter: 0ID: 0
Read mode : Secure
Utilize accurate stream : Yes
Defeat audio cache: Yes
Make use of C2 pointers : No
Read offset correction: 6
Overread into Lead-In and Lead-Out: No
Fill up missing offset samples with silence : Yes
Delete leading and trailing silent blocks : No
Null samples used in CRC calculations : Yes
Used interface: Installed external ASPI interface
Gap handling: Appended to previous track
Used output format: User Defined Encoder
Selected bitrate: 1024 kBit/s
Quality : High
Add ID3 tag : No
Command line compressor : C:Program FilesExact Audio CopyFlacflac.exe
Additional command line options : -8 -V -T "ARTIST=%a" -T "TITLE=%t" -T "ALBUM=%g" -T "DATE=%y" -T "TRACKNUMBER=%n" -T "GENRE=%m" -T "COMMENT=EAC FLAC -8" %s
TOC of the extracted CD
Track | Start|Length| Start sector | End sector
---------------------------------------------------------
1|0:00.00 |0:18.45 | 0| 1394
2|0:18.45 |3:15.12 |1395|16031
3|3:33.57 |4:42.05 | 16032|37186
4|8:15.62 |3:50.10 | 37187|54446
5| 12:05.72 |0:41.25 | 54447|57546
6| 12:47.22 |4:21.58 | 57547|77179
7| 17:09.05 |3:52.02 | 77180|94581
8| 21:01.07 |0:43.10 | 94582|97816
9| 21:44.17 |4:24.08 | 97817| 117624
10| 26:08.25 |3:40.20 |117625| 134144
11| 29:48.45 |3:41.60 |134145| 150779
12| 33:30.30 |5:02.10 |150780| 173439
13| 38:32.40 |5:37.10 |173440| 198724
14| 44:09.50 |4:11.52 |198725| 217601
15| 48:21.27 |4:55.35 |217602| 239761
16| 53:16.62 |4:09.70 |239762| 258506
Track1
Filename C:Users123DesktopLosslessEve - Scorpion (2001)1. Intro.wav
Pre-gap length0:00:02.00
Peak level 99.2 %
Track quality 99.4 %
Test CRC B94DAE13
Copy CRC B94DAE13
Cannot be verified as accurate (confidence 11)[B9457662], AccurateRip returned [E6347968]
Copy OK
Track2
Filename C:Users123DesktopLosslessEve - Scorpion (2001)2. Cowboy.wav
Peak level 99.9 %
Track quality 100.0 %
Test CRC 78102EC4
Copy CRC 78102EC4
Cannot be verified as accurate (confidence 11)[5463EBC6], AccurateRip returned [F37E5568]
Copy OK
Track3
Filename C:Users123DesktopLosslessEve - Scorpion (2001)3. Who's That Girl .wav
Peak level 99.9 %
Track quality 100.0 %
Test CRC 93D131FD
Copy CRC 93D131FD
Cannot be verified as accurate (confidence 11)[BB3D038C], AccurateRip returned [DDC85264]
Copy OK
Track4
Filename C:Users123DesktopLosslessEve - Scorpion (2001)4. Let Me Blow Ya Mind (Featuring Gwen Stefani).wav
Pre-gap length0:00:00.16
Peak level 98.8 %
Track quality 99.9 %
Test CRC 3B626089
Copy CRC 3B626089
Cannot be verified as accurate (confidence 11)[F1B674FD], AccurateRip returned [2A228322]
Copy OK
Track5
Filename C:Users123DesktopLosslessEve - Scorpion (2001)5. 3 Way (Skit) (Featuring Erex, Stevie J. Eve).wav
Peak level 99.9 %
Track quality 100.0 %
Test CRC E034F731
Copy CRC E034F731
Cannot be verified as accurate (confidence 11)[2C80F74C], AccurateRip returned [3055C0D7]
Copy OK
Track6
Filename C:Users123DesktopLosslessEve - Scorpion (2001)6. You Had Me, You Lost Me.wav
Pre-gap length0:00:00.09
Peak level 99.9 %
Track quality 100.0 %
Test CRC 497C1988
Copy CRC 497C1988
Cannot be verified as accurate (confidence 11)[565D66C0], AccurateRip returned [5AC1FEE6]
Copy OK
Track7
Filename C:Users123DesktopLosslessEve - Scorpion (2001)7. Got What You Need (Featuring Drag-On).wav
Peak level 99.9 %
Track quality 100.0 %
Test CRC E263EC7C
Copy CRC E263EC7C
Cannot be verified as accurate (confidence 11)[C54DA511], AccurateRip returned [3F95C0EC]
Copy OK
Track8
Filename C:Users123DesktopLosslessEve - Scorpion (2001)8. Frontin' (Skit).wav
Peak level 73.2 %
Track quality 99.7 %
Test CRC F79CE41C
Copy CRC F79CE41C
Cannot be verified as accurate (confidence 11)[E657E4ED], AccurateRip returned [7B4C6993]
Copy OK
Track9
Filename C:Users123DesktopLosslessEve - Scorpion (2001)9. Gangsta Bitches (Featuring Da Brat Trina).wav
Peak level 99.9 %
Track quality 100.0 %
Test CRC 58DB7A19
Copy CRC 58DB7A19
Cannot be verified as accurate (confidence 11)[510A907A], AccurateRip returned [1D2BAB59]
Copy OK
Track 10
Filename C:Users123DesktopLosslessEve - Scorpion (2001)10. That's What It Is (Featuring Styles Of The Lox).wav
Pre-gap length0:00:00.17
Peak level 98.8 %
Track quality 100.0 %
Test CRC 6078C334
Copy CRC 6078C334
Cannot be verified as accurate (confidence 11)[5FDC2203], AccurateRip returned [C0D1D8C7]
Copy OK
Track 11
Filename C:Users123DesktopLosslessEve - Scorpion (2001)11. Scream Double R (Featuring DMX).wav
Peak level 99.9 %
Track quality 99.9 %
Test CRC BA087905
Copy CRC BA087905
Cannot be verified as accurate (confidence 11)[7B36149A], AccurateRip returned [A0829D73]
Copy OK
Track 12
Filename C:Users123DesktopLosslessEve - Scorpion (2001)12. Thug In The Street (Featuring The Lox Drag-On).wav
Pre-gap length0:00:00.53
Peak level 99.9 %
Track quality 100.0 %
Test CRC D5BE0F35
Copy CRC D5BE0F35
Cannot be verified as accurate (confidence 10)[234EBE90], AccurateRip returned [88FEB0C0]
Copy OK
Track 13
Filename C:Users123DesktopLosslessEve - Scorpion (2001)13. No, No, No (Featuring Damian Stephen Marley).wav
Pre-gap length0:00:00.33
Peak level 99.9 %
Track quality 100.0 %
Test CRC 13C0498F
Copy CRC 13C0498F
Cannot be verified as accurate (confidence 11)[88A05E41], AccurateRip returned [4A0726CD]
Copy OK
Track 14
Filename C:Users123DesktopLosslessEve - Scorpion (2001)14. You Ain't Gettin' None.wav
Pre-gap length0:00:00.06
Peak level 99.9 %
Track quality 99.9 %
Test CRC FDD05F9C
Copy CRC FDD05F9C
Cannot be verified as accurate (confidence 11)[0DD64C74], AccurateRip returned [83FF02A0]
Copy OK
Track 15
Filename C:Users123DesktopLosslessEve - Scorpion (2001)15. Life Is So Hard (Featuring Teena Marie).wav
Pre-gap length0:00:00.22
Peak level 99.9 %
Track quality 100.0 %
Test CRC 06EA33DD
Copy CRC 06EA33DD
Cannot be verified as accurate (confidence 11)[AACA70FB], AccurateRip returned [2159703A]
Copy OK
Track 16
Filename C:Users123DesktopLosslessEve - Scorpion (2001)16. Be Me (Featuring Mashonda Tifrere).wav
Peak level 99.9 %
Track quality 100.0 %
Test CRC 29D2E2BE
Copy CRC 29D2E2BE
Cannot be verified as accurate (confidence 11)[C904E6CE], AccurateRip returned [B795E409]
Copy OK
No tracks could be verified as accurate
You may have a different pressing from the one(s) in the
No errors occurred
End of status report


http://zamolxismd.org/m/s006.radikal.ru/i213/1105/f0/b000137b4dac.gif




Формат : FLAC
Битрэйт : 1411
Связанные раздачи
Загрузка / Обновление
Категория Музыка / Мультимедиа RSS лента
Добавлен (7 лет, 5 месяцев назад)
Просмотров 536 раз (a)
Взят 58 раз (a)
Файлы 19, 398.16 MB (417 504 556 байт)
Раздал ViKa  (Искать торренты)
Участники
Скачивают (качают): 0 (1), Завершено: 10 (0)
Просматривают

« Icre negre [2010 / SATRip] [Drama] -†- ¿? -†- Cascada - Everytime We Touch [Lossless] [2006 / FLAC / 1411 (VBR)] [Dance] »

:: Список Комментариев
Нет комментариев.

 Нет комментариев

Счетчики
Яндекс.Метрика


Поделитесь в социальных сетях


Торрент клиент

Торрент клиент для macOS

Быстрый Поиск





Спасибо Вам
Мы благодарны этим людям в поддержке сайта:
oiproger
Попади и ты в этот блок, поставь оценку 5 и получи 300 MB к отдаче:
Войти на сайт сейчас.

Правообладателям
По всем вопросам сотрудничества, удаления авторских файлов "пачкой", просьба отписаться по адреcу:
[email protected]

Наши группы в VK, OK