Загрузка...

Самые активные релизы за неделю
Музыка / Мультимедиа Софт / Windows Мультфильмы Фильмы / AVI
VA - All I Want For Christmas Is Bass 2016 - 2017 [2016 / MP3 / 320] [House]
  • VA - All I Want For Christmas Is Bass 2016 - 2017 [2016 / MP3 / 320] [House]
  • The Thrillseekers - Escape [2016 / MP3 / 320] [Trance]
  • THE BEST OF THE BEST MUSIK COLLECTION (2007)
  • Top1000 Veronica 2016 (5CD) ( Hits / 2016 )
  • Bebe Relax. Musique De Relaxation (Vol.2) ( Relax / 2016 )
  • VA - Hearts Hits Vol.2  [2016 / MP3 / 320] [Dance]
  • VA - Garuda Best Of [2016 / MP3 / 320] [Trance]
  • Record Super Chart #465 ( Dance / 2016 )
  • Blank & Jones - Silent Piano (Songs for Sleeping) (WEB) ( Instrumental / 2016 )
  • Matt O'Ree - Collection / Blues
  • Ляля Размахова - Букет (The Best) ( Шансон / 2008 )
  • Katzenjammer - Discography / Folk-Rock

:: Детали раздачи
Раздача является мультитрекерной — учтите, количество раздающих не будет совпадать с количеством участников на сайте (скачивание на клиентской стороне зависит от настроек µTorrent клиент программы, настройки -> Включить DHT, Обмен пирами и Поиск лок-х пиров).
Если висит надпись, пиры по нулям - не бойтесь, возможность скачать повторно раздачу - есть. Попробуйте, в случае отказа - прокоментируйте или нажмите на "Позвать скачавших".

Мурат Насыров - 4 Альбома (1998-2004) FLAC

Скачать Скачать .torrent файл
Смотреть / Слушать онлайн просмотр
Magnet-ссылка
Теги / Метки [Не выбрано]
Описание
Мурат Насыров - 4 Альбома http://i47.fastpic.ru/big/2013/0621/48/ba2270c12cb36d547083ffa9a84e8048.jpg Жанр: Pop

Страна-производитель дисков: Sweden, Россия

Год издания дисков: 1998-2004

Аудио кодек: FLAC (*.flac)

Тип рипа: image+.cue

Битрейт аудио: lossless




1998 - Моя история


[code]

Exact Audio Copy V0.99 prebeta 5 from 4. May 2009


EAC extraction logfile from 29. October 2012, 22:53


Мурат Насыров / Моя история


Used drive : PIONEER DVD-RW DVR-212 Adapter: 1 ID: 0


Read mode : Secure

Utilize accurate stream : Yes

Defeat audio cache : Yes

Make use of C2 pointers : No


Read offset correction : 48

Overread into Lead-In and Lead-Out : No

Fill up missing offset samples with silence : Yes

Delete leading and trailing silent blocks : No

Null samples used in CRC calculations : Yes

Used interface : Native Win32 interface for Win NT 2000


Used output format : Internal WAV Routines

Sample format : 44.100 Hz; 16 Bit; Stereo


TOC of the extracted CD


Track | Start | Length | Start sector | End sector

---------------------------------------------------------

1 | 0:00.10 | 3:14.00 | 10 | 14559

2 | 3:14.10 | 4:00.65 | 14560 | 32624

3 | 7:15.00 | 4:04.07 | 32625 | 50931

4 | 11:19.07 | 3:36.48 | 50932 | 67179

5 | 14:55.55 | 4:01.72 | 67180 | 85326

6 | 18:57.52 | 4:22.58 | 85327 | 105034

7 | 23:20.35 | 4:06.50 | 105035 | 123534

8 | 27:27.10 | 4:16.45 | 123535 | 142779

9 | 31:43.55 | 4:11.42 | 142780 | 161646

10 | 35:55.22 | 4:08.25 | 161647 | 180271

11 | 40:03.47 | 4:40.08 | 180272 | 201279


Range status and errors


Selected range


Filename M:FLAC (bruk67)MP3Мурат Насыров (FLAC)1998 - Моя историяМурат Насыров - Моя история.wav


Peak level 97.7 %

Range quality 99.9 %

Test CRC 7132BE4E

Copy CRC 7132BE4E

Copy OK


No errors occurred


AccurateRip summary


Track 1 not present in

Track 2 not present in

Track 3 not present in

Track 4 not present in

Track 5 not present in

Track 6 not present in

Track 7 not present in

Track 8 not present in

Track 9 not present in

Track 10 not present in

Track 11 not present in


None of the tracks are present in the AccurateRip


End of status report



Скриншот спектра частот



2000 - Всё это было не со мной



Exact Audio Copy V0.99 prebeta 5 from 4. May 2009


EAC extraction logfile from 5. November 2012, 1:08


Мурат Насыров / Всё это было не со мной


Used drive : PIONEER DVD-RW DVR-212 Adapter: 1 ID: 0


Read mode : Secure

Utilize accurate stream : Yes

Defeat audio cache : Yes

Make use of C2 pointers : No


Read offset correction : 48

Overread into Lead-In and Lead-Out : No

Fill up missing offset samples with silence : Yes

Delete leading and trailing silent blocks : No

Null samples used in CRC calculations : Yes

Used interface : Native Win32 interface for Win NT 2000


Used output format : Internal WAV Routines

Sample format : 44.100 Hz; 16 Bit; Stereo


TOC of the extracted CD


Track | Start | Length | Start sector | End sector

---------------------------------------------------------

1 | 0:00.00 | 4:10.26 | 0 | 18775

2 | 4:10.26 | 3:51.16 | 18776 | 36116

3 | 8:01.42 | 4:08.72 | 36117 | 54788

4 | 12:10.39 | 3:52.05 | 54789 | 72193

5 | 16:02.44 | 4:11.63 | 72194 | 91081

6 | 20:14.32 | 3:59.20 | 91082 | 109026

7 | 24:13.52 | 3:43.60 | 109027 | 125811

8 | 27:57.37 | 4:20.24 | 125812 | 145335

9 | 32:17.61 | 4:12.02 | 145336 | 164237

10 | 36:29.63 | 4:35.68 | 164238 | 184930

11 | 41:05.56 | 3:45.03 | 184931 | 201808


Range status and errors


Selected range


Filename M:FLAC (bruk67)MP3Мурат Насыров (FLAC)2000 - Всё это было не со мнойМурат Насыров - Всё это было не со мной.wav


Peak level 97.7 %

Range quality 100.0 %

Test CRC 6E66EBC7

Copy CRC 6E66EBC7

Copy OK


No errors occurred


AccurateRip summary


Track 1 cannot be verified as accurate (confidence 1) [9CB66E7A], AccurateRip returned [27892599]

Track 2 cannot be verified as accurate (confidence 1) [C92E24FC], AccurateRip returned [DEC9B7AC]

Track 3 cannot be verified as accurate (confidence 1) [866DDF96], AccurateRip returned [6464468E]

Track 4 cannot be verified as accurate (confidence 1) [738EF0F0], AccurateRip returned [2387E6DA]

Track 5 cannot be verified as accurate (confidence 1) [4430D027], AccurateRip returned [DCA5411A]

Track 6 cannot be verified as accurate (confidence 1) [BBD64D2B], AccurateRip returned [735BC184]

Track 7 cannot be verified as accurate (confidence 1) [227D6C40], AccurateRip returned [0C84D9D0]

Track 8 cannot be verified as accurate (confidence 1) [214BB6E4], AccurateRip returned [ED67C178]

Track 9 cannot be verified as accurate (confidence 1) [1872F43B], AccurateRip returned [F9C75C72]

Track 10 cannot be verified as accurate (confidence 1) [F0EC8914], AccurateRip returned [B4AD2A81]

Track 11 cannot be verified as accurate (confidence 1) [058E0025], AccurateRip returned [4B07AB06]


No tracks could be verified as accurate

You may have a different pressing from the one(s) in the


End of status report



Скриншот спектра частот



2002 - Разбуди меня



Exact Audio Copy V0.99 prebeta 5 from 4. May 2009


EAC extraction logfile from 21. November 2012, 0:19


Мурат Насыров / Разбуди меня


Used drive : PIONEER DVD-RW DVR-212 Adapter: 8 ID: 0


Read mode : Secure

Utilize accurate stream : Yes

Defeat audio cache : Yes

Make use of C2 pointers : No


Read offset correction : 48

Overread into Lead-In and Lead-Out : No

Fill up missing offset samples with silence : Yes

Delete leading and trailing silent blocks : No

Null samples used in CRC calculations : Yes

Used interface : Installed external ASPI interface


Used output format : Internal WAV Routines

Sample format : 44.100 Hz; 16 Bit; Stereo


TOC of the extracted CD


Track | Start | Length | Start sector | End sector

---------------------------------------------------------

1 | 0:00.00 | 3:52.14 | 0 | 17413

2 | 3:52.14 | 5:08.57 | 17414 | 40570

3 | 9:00.71 | 3:40.51 | 40571 | 57121

4 | 12:41.47 | 4:27.74 | 57122 | 77220

5 | 17:09.46 | 4:09.47 | 77221 | 95942

6 | 21:19.18 | 4:44.70 | 95943 | 117312

7 | 26:04.13 | 4:00.52 | 117313 | 135364

8 | 30:04.65 | 3:41.16 | 135365 | 151955

9 | 33:46.06 | 4:22.39 | 151956 | 171644

10 | 38:08.45 | 4:02.56 | 171645 | 189850

11 | 42:11.26 | 4:05.32 | 189851 | 208257

12 | 46:16.58 | 4:06.21 | 208258 | 226728

13 | 50:23.04 | 4:09.70 | 226729 | 245473

14 | 54:32.74 | 4:54.68 | 245474 | 267591


Range status and errors


Selected range


Filename M:FLAC (bruk67)MP3Мурат Насыров (FLAC)2002 - Разбуди меняМурат Насыров - Разбуди меня.wav


Peak level 98.9 %

Range quality 100.0 %

Test CRC 82C9E1FD

Copy CRC 82C9E1FD

Copy OK


No errors occurred


AccurateRip summary


Track 1 not present in

Track 2 not present in

Track 3 not present in

Track 4 not present in

Track 5 not present in

Track 6 not present in

Track 7 not present in

Track 8 not present in

Track 9 not present in

Track 10 not present in

Track 11 not present in

Track 12 not present in

Track 13 not present in

Track 14 not present in


None of the tracks are present in the AccurateRip


End of status report



Скриншот спектра частот



2004 - Kaldim Yalguz (Остался Один) Уйгурский альбом



Exact Audio Copy V0.99 prebeta 5 from 4. May 2009


EAC extraction logfile from 8. January 2013, 3:27


Мурат Насыров / Kaldim yalguz (Уйгурский альбом)


Used drive : PIONEER DVD-RW DVR-212 Adapter: 1 ID: 0


Read mode : Secure

Utilize accurate stream : Yes

Defeat audio cache : Yes

Make use of C2 pointers : No


Read offset correction : 48

Overread into Lead-In and Lead-Out : No

Fill up missing offset samples with silence : Yes

Delete leading and trailing silent blocks : No

Null samples used in CRC calculations : Yes

Used interface : Native Win32 interface for Win NT 2000


Used output format : Internal WAV Routines

Sample format : 44.100 Hz; 16 Bit; Stereo


TOC of the extracted CD


Track | Start | Length | Start sector | End sector

---------------------------------------------------------

1 | 0:00.00 | 4:19.13 | 0 | 19437

2 | 4:19.13 | 3:36.41 | 19438 | 35678

3 | 7:55.54 | 3:43.44 | 35679 | 52447

4 | 11:39.23 | 3:19.39 | 52448 | 67411

5 | 14:58.62 | 3:54.16 | 67412 | 84977

6 | 18:53.03 | 4:02.30 | 84978 | 103157

7 | 22:55.33 | 3:35.31 | 103158 | 119313

8 | 26:30.64 | 3:38.52 | 119314 | 135715

9 | 30:09.41 | 3:33.53 | 135716 | 151743

10 | 33:43.19 | 3:37.10 | 151744 | 168028

11 | 37:20.29 | 4:15.13 | 168029 | 187166

12 | 41:35.42 | 5:46.65 | 187167 | 213181

13 | 47:22.32 | 4:15.08 | 213182 | 232314


Range status and errors


Selected range


Filename M:FLAC (bruk67)MP3Мурат Насыров (FLAC)2004 - Kaldim Yalguz (Остался Один) Уйгурский АльбомМурат Насыров - Kaldim yalguz (Уйгурский альбом).wav


Peak level 100.0 %

Range quality 100.0 %

Test CRC EF6D45B9

Copy CRC EF6D45B9

Copy OK


No errors occurred


AccurateRip summary


Track 1 not present in

Track 2 not present in

Track 3 not present in

Track 4 not present in

Track 5 not present in

Track 6 not present in

Track 7 not present in

Track 8 not present in

Track 9 not present in

Track 10 not present in

Track 11 not present in

Track 12 not present in

Track 13 not present in


None of the tracks are present in the AccurateRip


End of status report



Скриншот спектра частот
Похожие файлы
Загрузка / Обновление
Категория Музыка / Мультимедиа RSS лента
Добавлен (1 год, 5 месяцев назад)
Просмотров 104 раз (a)
Взят 4 раз (a)
Файлы 43, 1.65 GB (1 766 895 399 байт)
Раздал ViKa  (Искать торренты)
Участники
Скачивают (качают): 0 (1), Завершено: 0 (0)
Просматривают

« Сборник - Клубный хит -†- ¿? -†- Глушь / Backcountry (2014) WEB-DL 720p | L1 »

:: Список Комментариев
Нет комментариев.

 Нет комментариев

Счетчики
Рейтинг@Mail.ru Яндекс.Метрика


Поделитесь в социальных сетях


Быстрый Поиск





Спасибо Вам
Мы благодарны этим людям в поддержке сайта:
Нет данных для показа
Попади и ты в этот блок, поставь оценку 5 и получи 300 MB к отдаче:
Войти на сайт сейчас.

Правобладателям
По всем вопросам сотрудничества, удаления авторских файлов "пачкой", просьба отписаться по адреcу:
abuse@muz-tracker.net

Наша группа в VK