Загрузка...

Самые активные релизы за неделю
Музыка / Мультимедиа Фильмы / AVI Фильмы / HDTV / HD / Blu-Ray
THE BEST OF THE BEST MUSIK COLLECTION (2007)
  • THE BEST OF THE BEST MUSIK COLLECTION (2007)
  • Top1000 Veronica 2016 (5CD) ( Hits / 2016 )
  • VA   -   Bravo Hits   Vol.92
  • Record Super Chart #465 ( Dance / 2016 )
  • Ляля Размахова - Букет (The Best) ( Шансон / 2008 )
  • VA - Record Super Chart № 465 [2016 / MP3 / 320] [House]
  • LUXEmusic - Dance Super Chart (Vol.97) ( House / 2016 )
  • VA - Super Hits of the '70s - Have a Nice Day Vol. 1
  • VA - Who's Afraid Of 138?! Best Of [2016 / MP3 / 320] [Trance]
  • VA - I Love Music! - Trap Edition Vol. 34 [2016 / MP3 / 320] [Electronic]
  • Катя Суржикова - Не спи, дорогой!
  • Unforgettable Moments with Jazz ( Jazz / 2016 )

:: Детали раздачи

John Paul Jones - Zooma + The Thunderthief (1999 + 2001) FLAC

Скачать Скачать .torrent файл
Смотреть / Слушать онлайн просмотр
Magnet-ссылка
Теги / Метки rock, hard rock, 1999
Описание
Жанр: Rock, Hard Rock

Носитель: CD
Страна-производитель диска (релиза): Australia
Год издания: 1999 + 2001
Издатель (лейбл): 2000 FRUITGUM
Номер по каталогу: FCCD 108695/6-2
Страна исполнителя (группы): UK
Аудиокодек: FLAC (*.flac)
Тип рипа: image+.cue
Битрейт аудио: lossless
Продолжительность: 01:34:11
Наличие сканов в содержимом раздачи: да

John Paul Jones - Zooma - 1999

Exact Audio Copy V0.99 prebeta 4 from 23. January 2008

EAC extraction logfile from 3. June 2015, 5:36

John Paul Jones / Zooma

Used drive : GIGABYTEGO-D1600C Adapter: 3 ID: 0

Read mode : Secure
Utilize accurate stream : Yes
Defeat audio cache : Yes
Make use of C2 pointers : No

Read offset correction : 12
Overread into Lead-In and Lead-Out : No
Fill up missing offset samples with silence : Yes
Delete leading and trailing silent blocks : No
Null samples used in CRC calculations : Yes
Used interface : Native Win32 interface for Win NT 2000

Used output format : Internal WAV Routines
Sample format : 44.100 Hz; 16 Bit; Stereo

TOC of the extracted CD

Track | Start | Length | Start sector | End sector
---------------------------------------------------------
1 | 0:00.00 | 5:52.65 | 0 | 26464
2 | 5:52.65 | 5:20.70 | 26465 | 50534
3 | 11:13.60 | 5:50.00 | 50535 | 76784
4 | 17:03.60 | 4:58.42 | 76785 | 99176
5 | 22:02.27 | 2:32.25 | 99177 | 110601
6 | 24:34.52 | 5:26.10 | 110602 | 135061
7 | 30:00.62 | 7:32.25 | 135062 | 168986
8 | 37:33.12 | 5:48.23 | 168987 | 195109
9 | 43:21.35 | 4:18.62 | 195110 | 214521
10 | 50:12.22 | 17:38.30 | 225922 | 305301

Range status and errors

Selected range

Filename D:TempJohn Paul Jones - Zooma - 1999John Paul Jones - Zooma.wav

Peak level 100.0 %
Range quality 100.0 %
Test CRC E53FDD04
Copy CRC E53FDD04
Copy OK

No errors occurred

AccurateRip summary

Track 1 accurately ripped (confidence 5) [22C72AFE]
Track 2 accurately ripped (confidence 5) [CAAE1C6B]
Track 3 accurately ripped (confidence 5) [A3C16670]
Track 4 accurately ripped (confidence 5) [A7F0C6F4]
Track 5 accurately ripped (confidence 5) [D2896272]
Track 6 accurately ripped (confidence 5) [F0E87469]
Track 7 accurately ripped (confidence 5) [6B853C3C]
Track 8 accurately ripped (confidence 5) [0451FD64]
Track 9 accurately ripped (confidence 5) [FB9DDE94]

All tracks accurately ripped

End of status report

John Paul Jones - The Thunderthief - 2001
Exact Audio Copy V0.99 prebeta 4 from 23. January 2008

EAC extraction logfile from 3. June 2015, 5:57

John Paul Jones / The Thunderthief

Used drive : GIGABYTEGO-D1600C Adapter: 3 ID: 0

Read mode : Secure
Utilize accurate stream : Yes
Defeat audio cache : Yes
Make use of C2 pointers : No

Read offset correction : 12
Overread into Lead-In and Lead-Out : No
Fill up missing offset samples with silence : Yes
Delete leading and trailing silent blocks : No
Null samples used in CRC calculations : Yes
Used interface : Native Win32 interface for Win NT 2000

Used output format : Internal WAV Routines
Sample format : 44.100 Hz; 16 Bit; Stereo

TOC of the extracted CD

Track | Start | Length | Start sector | End sector
---------------------------------------------------------
1 | 0:00.00 | 5:10.35 | 0 | 23284
2 | 5:10.35 | 5:58.47 | 23285 | 50181
3 | 11:09.07 | 7:00.15 | 50182 | 81696
4 | 18:09.22 | 4:35.55 | 81697 | 102376
5 | 22:45.02 | 4:50.35 | 102377 | 124161
6 | 27:35.37 | 5:56.60 | 124162 | 150921
7 | 33:32.22 | 4:20.45 | 150922 | 170466
8 | 37:52.67 | 5:59.08 | 170467 | 197399
9 | 43:52.00 | 2:38.57 | 197400 | 209306

Range status and errors

Selected range

Filename D:TempJohn Paul Jones - The Thunderthief - 2001John Paul Jones - The Thunderthief.wav

Peak level 100.0 %
Range quality 100.0 %
Test CRC 89AF769E
Copy CRC 89AF769E
Copy OK

No errors occurred

AccurateRip summary

Track 1 accurately ripped (confidence 9) [C6E709DA]
Track 2 accurately ripped (confidence 10) [605EE109]
Track 3 accurately ripped (confidence 10) [751FBCBA]
Track 4 accurately ripped (confidence 10) [AAFC060B]
Track 5 accurately ripped (confidence 10) [28FAA2B1]
Track 6 accurately ripped (confidence 10) [83691735]
Track 7 accurately ripped (confidence 10) [74C251EF]
Track 8 accurately ripped (confidence 10) [8B0FA8A8]
Track 9 accurately ripped (confidence 10) [42DF72B1]

All tracks accurately ripped

End of status report
Похожие файлы
Загрузка / Обновление
Категория Музыка / Мультимедиа RSS лента
Добавлен (1 год, 6 месяцев назад)
Просмотров 40 раз (a)
Взят 0 раз (a)
Файлы 163, 968.83 MB (1 015 894 334 байт)
Раздал ViKa  (Искать торренты)
Участники
Раздают (отдают): 0 (14), Скачивают (качают): 0 (5), Завершено: 0 (62)
Просматривают

« Burns - When I'm Around U [2015 / MP3 / 320] [House] -†- ¿? -†- КВН на Красной поляне [08/02] [1080i] [2015 / HDTVRip] [Comedy] »

:: Список Комментариев
Нет комментариев.

 Нет комментариев

Счетчики
Рейтинг@Mail.ru Яндекс.Метрика


Поделитесь в социальных сетях


Быстрый Поиск





Спасибо Вам
Мы благодарны этим людям в поддержке сайта:
valmit2011, MMMNNNBBB
Попади и ты в этот блок, поставь оценку 5 и получи 300 MB к отдаче:
Войти на сайт сейчас.

Правобладателям
По всем вопросам сотрудничества, удаления авторских файлов "пачкой", просьба отписаться по адреcу:
abuse@muz-tracker.net

Наша группа в VK