Самые активные релизы за неделю
Музыка / Мультимедиа Сериалы Фильмы / AVI
Michael Jackson - King of Pop [2CD Deluxe UK Edition] (2015) MP3
  • Michael Jackson - King of Pop [2CD Deluxe UK Edition] (2015) MP3
  • VA - Cold Emotions Melancholic Piano Melodies Collection (2014) MP3
  • VA - I Love Music! - Hard Rock Edition Vol.31 [2017 / MP3 / 320] [Hard Rock]
  • VA - Kiss FM UA - TOP 40 PARADE - 05 February  [2017 / MP3 / 320] [Club]
  • VA - Полный отрыв. Зимние хиты (2016) MP3
  • VA - Trance In Motion Volume 209 (Mixed by Emil Sorous) [2017 / MP3 / 320] [Trance]
  • VA - Retro Party. Favorite Hits 80-90's [2017 / MP3 / 320] [Disco]
  • Evanescence - Lost Whispers [2016 / MP3 / 320] [Alternative]
  • Сборник - Зимняя 100-ка хитовая (2014) MP3
  • VA - Kiss FM Fresh Top 40 - 4 Februarie 2017 [2017 / MP3 / 320] [Dance]
  • Depeche Mode - Where's The Revolution [2017 / MP3 / 320] [Electronic]
  • VA - Top 100 Beatport Downloads January [2017 / MP3 / 320] [House]

:: Детали раздачи

The Pink Floyd - The Dark Side Of The Moon [Remastered 2015] (1973) FLAC

Скачать Скачать .torrent файл
Смотреть / Слушать онлайн просмотр
Magnet-ссылка
Теги / Метки [Не выбрано, автопоиск неудачен, 1 месяц назад]
Описание
http://s017.radikal.ru/i423/1504/81/8c037a92916a.png

Исполнитель: Алан Парсонс — Звукорежиссёр и инженер
Отчёты:
[/spoiler]Отчёт auCDtect Task manager:
Код:

-----------------------

DON'T MODIFY THIS FILE

-----------------------

PERFORMER: auCDtect Task Manager, ver. 1.6.0 RC1 build 1.6.0.1
Copyright (c) 2008-2010 y-soft. All rights reserved
http://y-soft.org

ANALYZER: auCDtect: CD records authenticity detector, version 0.8.2
Copyright (c) 2004 Oleg Berngardt. All rights reserved.
Copyright (c) 2004 Alexander Djourik. All rights reserved.

FILE: Pink Floyd - Dark Side Of The Moon.flac
Size: 257451353 Hash: 1CADF50A43FBF65B7C75C29A3C4EA406 Accuracy: -m0
Conclusion: CDDA 100%
Signature: B47DEC4B9D5E5525D314920D977B3B0CE3653F02

Отчёт EAC:
Код:
Exact Audio Copy V0.99 prebeta 5 from 4. May 2009

EAC extraction logfile from 26. February 2015, 1:47

Pink Floyd / Dark Side Of The Moon

Used drive : HL-DT-STDVDRAM GT10N Adapter: 1 ID: 0

Read mode : Secure
Utilize accurate stream : Yes
Defeat audio cache : Yes
Make use of C2 pointers : No

Read offset correction : 102
Overread into Lead-In and Lead-Out : No
Fill up missing offset samples with silence : Yes
Delete leading and trailing silent blocks : No
Null samples used in CRC calculations : Yes
Used interface : Native Win32 interface for Win NT 2000
Gap handling : Appended to previous track

Used output format : Internal WAV Routines
Sample format : 44.100 Hz; 16 Bit; Stereo

TOC of the extracted CD

Track | Start | Length | Start sector | End sector
---------------------------------------------------------
1 | 0:00.00 | 1:08.32 | 0 | 5131
2 | 1:08.32 | 2:46.32 | 5132 | 17613
3 | 3:54.64 | 3:38.71 | 17614 | 34034
4 | 7:33.60 | 7:00.47 | 34035 | 65581
5 | 14:34.32 | 4:48.18 | 65582 | 87199
6 | 19:22.50 | 6:33.35 | 87200 | 116709
7 | 25:56.10 | 7:39.02 | 116710 | 151136
8 | 33:35.12 | 3:25.33 | 151137 | 166544
9 | 37:00.45 | 3:50.23 | 166545 | 183817
10 | 40:50.68 | 2:05.07 | 183818 | 193199

Range status and errors

Selected range

Filename C:RELPink Floyd - Dark Side Of The Moon.wav

Peak level 96.5 %
Range quality 100.0 %
Test CRC CCB57F32
Copy CRC CCB57F32
Copy OK

No errors occurred

End of status report

http://i016.radikal.ru/1504/03/fa2a67335d74.png
Похожие файлы
Загрузка / Обновление
Категория Музыка / Мультимедиа RSS лента
Добавлен (1 год, 9 месяцев назад)
Просмотров 141 раз (a)
Взят 1 раз (a)
Файлы 9, 260.18 MB (272 814 222 байт)
Раздал ViKa  (Искать торренты)
Участники
Раздают (отдают): 0 (35), Скачивают (качают): 0 (4), Завершено: 0 (78)
Просматривают

« Галерея фантастической живописи XX века: Эротика [5111шт] (2011) JPG, GIF -†- ¿? -†- Enarxis - Singles And EP's Collection (2014) MP3 »

:: Список Комментариев
Нет комментариев.

 Нет комментариев

Счетчики
Рейтинг@Mail.ru


Поделитесь в социальных сетях


Быстрый Поиск





Спасибо Вам
Мы благодарны этим людям в поддержке сайта:
Нет данных для показа
Попади и ты в этот блок, поставь оценку 5 и получи 300 MB к отдаче:
Войти на сайт сейчас.

Правообладателям
По всем вопросам сотрудничества, удаления авторских файлов "пачкой", просьба отписаться по адреcу:
abuse@muz-tracker.net

Наши группы в VK, OK