Самые активные релизы за неделю
Музыка / Мультимедиа Сериалы Фильмы / AVI
Sexy Beach Jazz: The Very Best of Cafe Chill and Summer Relaxing Smooth Jazz Lounge (2016) [MP3|320 Kbps]
  •  Sexy Beach Jazz: The Very Best of Cafe Chill and Summer Relaxing Smooth Jazz Lounge (2016) [MP3|320 Kbps]
  • Aston Grey Project - The Sensual Side (2016) [MP3|320 Kbps]
  •  Dance Paradise: December Party (2016) [MP3|320 Kbps]
  •  Chill In The Summer: Chillout Collection (2016) [MP3|320 Kbps]
  •  Sensitive Deep House (2016) [MP3|320 Kbps]
  • Хитовый драйв. Давай устроим Party ( Pop / 2017 )
  •  Songs Dreams: A Place Of Romance (2016) [MP3|251-320 Kbps]
  • Коллекция - Панк рок каверы (2009-2015) MP3
  • Aston Grey Project - Discography / Jazz
  • John Kirby - The Biggest Little Band In The Land (1938-1941) 1994, Jazz Portraits[APE|Lossless|tracks + .cue]
  • Armin van Buuren - A State Of Trance 800 (Part.3) ( Trance / 2017 )
  •  Sensual Christmas Chill (2016) [MP3|320 Kbps]

:: Детали раздачи
Раздача является мультитрекерной — учтите, количество раздающих не будет совпадать с количеством участников на сайте (скачивание на клиентской стороне зависит от настроек µTorrent клиент программы, настройки -> Включить DHT, Обмен пирами и Поиск лок-х пиров).
Если висит надпись, пиры по нулям - не бойтесь, возможность скачать повторно раздачу - есть. Попробуйте, в случае отказа - прокоментируйте или нажмите на "Позвать скачавших".

Матрица: Трилогия / The Matrix: Trilogy (1999-2003) BDRip 1080p

Скачать Скачать .torrent файл
Смотреть / Слушать онлайн просмотр
Magnet-ссылка
Теги / Метки фантастика, боевик, приключения, 1999
Описание

Жанр: фантастика, боевик, приключения

Год выпуска: 1999/2003
Продолжительность: 02:16:17 | 02:18:15 | 02:09:15

Режиссёр: Энди Вачовски, Лана Вачовски

Матрица / The Matrix (1999) BDRip 1080p
Общее
Уникальный идентификатор : 232646161883304376008093052939954581764 (0xAF06055DC0568D63B642B5B5C56C7104)
Полное имя : Матрица.1999.BDRip.1080p.Rus.Eng.mkv
Формат : Matroska
Версия формата : Version 2
Размер файла : 7,76 Гбайт
Продолжительность : 2 ч. 16 м.
Общий поток : 8155 Кбит/сек
Название фильма : Матрица.1999
Дата кодирования : UTC 2012-12-24 14:27:22
Программа кодирования : mkvmerge v5.8.0 ('No Sleep / Pillow') built on Sep 2 2012 15:37:04
Библиотека кодирования : libebml v1.2.3 + libmatroska v1.3.0

Видео
Идентификатор : 1
Формат : AVC
Формат/Информация : Advanced Video Codec
Профиль формата : High@L4.1
Параметр CABAC формата : Да
Параметр ReFrames формата : 5 кадров
Идентификатор кодека : V_MPEG4/ISO/AVC
Продолжительность : 2 ч. 16 м.
Битрейт : 6874 Кбит/сек
Ширина : 1920 пикселей
Высота : 800 пикселей
Соотношение сторон : 2,40:1
Режим частоты кадров : Постоянный
Частота кадров : 23,976 кадра/сек
Цветовое пространство : YUV
Субдискретизация насыщенности : 4:2:0
Битовая глубина : 8 бит
Тип развёртки : Прогрессивная
Бит/(Пиксели*Кадры) : 0.187
Размер потока : 6,39 Гбайт (82%)
Заголовок : Rip by Boriy
Библиотека кодирования : x264 core 125 r2208 d9d2288
Настройки программы : cabac=1 / ref=5 / deblock=1:0:0 / analyse=0x3:0x113 / me=umh / subme=10 / psy=1 / psy_rd=1.00:0.10 / mixed_ref=1 / me_range=32 / chroma_me=1 / trellis=2 / 8x8dct=1 / cqm=0 / deadzone=21,11 / fast_pskip=0 / chroma_qp_offset=-3 / threads=12 / lookahead_threads=2 / sliced_threads=0 / nr=0 / decimate=0 / interlaced=0 / bluray_compat=0 / constrained_intra=0 / bframes=5 / b_pyramid=2 / b_adapt=2 / b_bias=0 / direct=3 / weightb=1 / open_gop=0 / weightp=2 / keyint=240 / keyint_min=23 / scenecut=40 / intra_refresh=0 / rc=2pass / mbtree=0 / bitrate=6874 / ratetol=1.0 / qcomp=0.60 / qpmin=0 / qpmax=69 / qpstep=4 / cplxblur=20.0 / qblur=0.5 / ip_ratio=1.40 / pb_ratio=1.30 / aq=1:0.80
Язык : English
Default : Да
Forced : Нет

Аудио #1
Идентификатор : 2
Формат : AC-3
Формат/Информация : Audio Coding 3
Расширение режима : CM (complete main)
Параметр Endianness формата : Big
Идентификатор кодека : A_AC3
Продолжительность : 2 ч. 16 м.
Вид битрейта : Постоянный
Битрейт : 640 Кбит/сек
Каналы : 6 каналов
Расположение каналов : Front: L C R, Side: L R, LFE
Частота : 48,0 КГц
Битовая глубина : 16 бит
Метод сжатия : С потерями
Размер потока : 624 Мбайт (8%)
Заголовок : Дубляж
Язык : Russian
Default : Да
Forced : Нет

Аудио #2
Идентификатор : 3
Формат : AC-3
Формат/Информация : Audio Coding 3
Расширение режима : CM (complete main)
Параметр Endianness формата : Big
Идентификатор кодека : A_AC3
Продолжительность : 2 ч. 16 м.
Вид битрейта : Постоянный
Битрейт : 640 Кбит/сек
Каналы : 6 каналов
Расположение каналов : Front: L C R, Side: L R, LFE
Частота : 48,0 КГц
Битовая глубина : 16 бит
Метод сжатия : С потерями
Размер потока : 624 Мбайт (8%)
Заголовок : Оригинал
Язык : English
Default : Нет
Forced : Нет

Текст #1
Идентификатор : 4
Формат : UTF-8
Идентификатор кодека : S_TEXT/UTF8
Идентификатор кодека/Информация : UTF-8 Plain Text
Язык : Russian
Default : Нет
Forced : Нет

Текст #2
Идентификатор : 5
Формат : UTF-8
Идентификатор кодека : S_TEXT/UTF8
Идентификатор кодека/Информация : UTF-8 Plain Text
Язык : English
Default : Нет
Forced : Нет

Меню
00:00:00.000 : :Chapter 1
00:00:03.336 : :Chapter 2
00:00:38.747 : :Chapter 3
00:01:53.154 : :Chapter 4
00:02:19.764 : :Chapter 5
00:02:41.786 : :Chapter 6
00:03:00.305 : :Chapter 7
00:03:06.895 : :Chapter 8
00:03:25.788 : :Chapter 9
00:03:46.893 : :Chapter 10
00:04:15.630 : :Chapter 11
00:05:30.580 : :Chapter 12
00:06:35.645 : :Chapter 13
00:06:35.853 : :Chapter 14
00:07:12.390 : :Chapter 15
00:07:25.736 : :Chapter 16
00:08:23.878 : :Chapter 17
00:08:44.649 : :Chapter 18
00:09:42.665 : :Chapter 19
00:09:43.040 : :Chapter 20
00:10:05.396 : :Chapter 21
00:10:35.009 : :Chapter 22
00:10:59.158 : :Chapter 23
00:11:55.881 : :Chapter 24
00:11:58.300 : :Chapter 25
00:12:32.293 : :Chapter 26
00:12:53.898 : :Chapter 27
00:13:37.274 : :Chapter 28
00:14:43.173 : :Chapter 29
00:16:04.880 : :Chapter 30
00:16:47.423 : :Chapter 31
00:17:11.155 : :Chapter 32
00:17:57.284 : :Chapter 33
00:18:18.305 : :Chapter 34
00:19:04.810 : :Chapter 35
00:19:31.795 : :Chapter 36
00:19:58.030 : :Chapter 37
00:20:22.512 : :Chapter 38
00:21:33.542 : :Chapter 39
00:21:40.507 : :Chapter 40
00:22:49.785 : :Chapter 41
00:24:01.314 : :Chapter 42
00:24:47.110 : :Chapter 43
00:25:08.590 : :Chapter 44
00:25:48.755 : :Chapter 45
00:26:58.325 : :Chapter 46
00:27:41.993 : :Chapter 47
00:28:43.179 : :Chapter 48
00:28:51.146 : :Chapter 49
00:29:17.714 : :Chapter 50
00:30:58.857 : :Chapter 51
00:31:59.334 : :Chapter 52
00:32:23.316 : :Chapter 53
00:32:25.193 : :Chapter 54
00:32:35.787 : :Chapter 55
00:32:43.711 : :Chapter 56
00:33:13.199 : :Chapter 57
00:33:30.383 : :Chapter 58
00:33:51.696 : :Chapter 59
00:34:32.612 : :Chapter 60
00:35:21.869 : :Chapter 61
00:35:39.804 : :Chapter 62
00:36:10.626 : :Chapter 63
00:36:37.403 : :Chapter 64
00:38:40.901 : :Chapter 65
00:38:51.245 : :Chapter 66
00:39:32.161 : :Chapter 67
00:40:46.610 : :Chapter 68
00:41:30.946 : :Chapter 69
00:42:25.501 : :Chapter 70
00:43:21.974 : :Chapter 71
00:44:09.480 : :Chapter 72
00:44:22.576 : :Chapter 73
00:44:36.632 : :Chapter 74
00:45:23.554 : :Chapter 75
00:46:20.235 : :Chapter 76
00:46:33.540 : :Chapter 77
00:47:51.994 : :Chapter 78
00:48:29.489 : :Chapter 79
00:48:57.851 : :Chapter 80
00:49:10.822 : :Chapter 81
00:49:48.860 : :Chapter 82
00:50:44.166 : :Chapter 83
00:51:37.886 : :Chapter 84
00:52:05.413 : :Chapter 85
00:52:28.562 : :Chapter 86
00:52:56.172 : :Chapter 87
00:53:31.291 : :Chapter 88
00:53:38.173 : :Chapter 89
00:54:03.782 : :Chapter 90
00:54:50.912 : :Chapter 91
00:55:35.373 : :Chapter 92
00:56:29.844 : :Chapter 93
00:56:32.138 : :Chapter 94
00:57:09.134 : :Chapter 95
00:57:17.809 : :Chapter 96
00:59:01.287 : :Chapter 97
00:59:02.080 : :Chapter 98
01:00:01.222 : :Chapter 99
01:01:07.705 : :Chapter 100
01:01:08.581 : :Chapter 101
01:01:24.639 : :Chapter 102
01:01:52.959 : :Chapter 103
01:02:17.483 : :Chapter 104
01:03:07.200 : :Chapter 105
01:03:51.160 : :Chapter 106
01:04:19.105 : :Chapter 107
01:05:14.243 : :Chapter 108
01:05:16.495 : :Chapter 109
01:05:23.210 : :Chapter 110
01:07:07.481 : :Chapter 111
01:07:30.713 : :Chapter 112
01:07:46.812 : :Chapter 113
01:08:08.042 : :Chapter 114
01:08:31.565 : :Chapter 115
01:09:27.872 : :Chapter 116
01:09:55.482 : :Chapter 117
01:11:05.010 : :Chapter 118
01:11:27.074 : :Chapter 119
01:12:32.973 : :Chapter 120
01:12:33.432 : :Chapter 121
01:13:28.821 : :Chapter 122
01:14:29.089 : :Chapter 123
01:15:22.643 : :Chapter 124
01:17:49.581 : :Chapter 125
01:20:01.505 : :Chapter 126
01:21:03.108 : :Chapter 127
01:21:26.548 : :Chapter 128
01:23:07.315 : :Chapter 129
01:23:48.148 : :Chapter 130
01:25:03.223 : :Chapter 131
01:25:05.350 : :Chapter 132
01:25:50.645 : :Chapter 133
01:28:31.097 : :Chapter 134
01:29:12.805 : :Chapter 135
01:29:45.129 : :Chapter 136
01:29:52.804 : :Chapter 137
01:31:26.272 : :Chapter 138
01:31:27.565 : :Chapter 139
01:31:53.925 : :Chapter 140
01:32:16.572 : :Chapter 141
01:34:24.617 : :Chapter 142
01:35:08.077 : :Chapter 143
01:36:00.045 : :Chapter 144
01:36:44.465 : :Chapter 145
01:37:25.256 : :Chapter 146
01:37:26.298 : :Chapter 147
01:37:48.153 : :Chapter 148
01:38:29.236 : :Chapter 149
01:38:48.964 : :Chapter 150
01:39:22.665 : :Chapter 151
01:40:17.011 : :Chapter 152
01:41:02.681 : :Chapter 153
01:41:04.975 : :Chapter 154
01:41:30.000 : :Chapter 155
01:41:52.397 : :Chapter 156
01:42:06.120 : :Chapter 157
01:43:36.293 : :Chapter 158
01:44:20.337 : :Chapter 159
01:45:09.136 : :Chapter 160
01:45:31.450 : :Chapter 161
01:47:00.497 : :Chapter 162
01:47:20.559 : :Chapter 163
01:47:58.263 : :Chapter 164
01:48:59.658 : :Chapter 165
01:50:18.528 : :Chapter 166
01:51:17.754 : :Chapter 167
01:52:54.392 : :Chapter 168
01:52:56.686 : :Chapter 169
01:54:05.672 : :Chapter 170
01:55:27.462 : :Chapter 171
01:55:37.680 : :Chapter 172
01:55:48.650 : :Chapter 173
01:56:11.464 : :Chapter 174
01:56:29.941 : :Chapter 175
01:56:36.906 : :Chapter 176
01:57:43.222 : :Chapter 177
01:58:15.963 : :Chapter 178
01:58:49.372 : :Chapter 179
02:00:03.905 : :Chapter 180
02:00:30.181 : :Chapter 181
02:01:02.296 : :Chapter 182
02:02:27.423 : :Chapter 183
02:03:00.831 : :Chapter 184
02:03:58.556 : :Chapter 185
02:04:30.713 : :Chapter 186
02:05:41.784 : :Chapter 187
02:05:56.715 : :Chapter 188
02:06:28.706 : :Chapter 189
02:06:53.147 : :Chapter 190
02:07:52.581 : :Chapter 191
02:08:44.591 : :Chapter 192
02:08:46.802 : :Chapter 193
02:09:30.262 : :Chapter 194
02:11:20.163 : :Chapter 195
Матрица: Перезагрузка / The Matrix Reloaded (2003) BDRip 1080p
Общее
Уникальный идентификатор : 235305265141742068989978014994703074470 (0xB10625476862CB87B755F474361C44A6)
Полное имя : Матрица. Перезагрузка.2003.BDRip.1080p.Rus.Eng.mkv
Формат : Matroska
Версия формата : Version 2
Размер файла : 7,77 Гбайт
Продолжительность : 2 ч. 18 м.
Общий поток : 8041 Кбит/сек
Название фильма : Матрица: Перезагрузка.2003
Дата кодирования : UTC 2012-09-18 11:47:27
Программа кодирования : mkvmerge v5.8.0 ('No Sleep / Pillow') built on Sep 2 2012 15:37:04
Библиотека кодирования : libebml v1.2.3 + libmatroska v1.3.0

Видео
Идентификатор : 1
Формат : AVC
Формат/Информация : Advanced Video Codec
Профиль формата : High@L4.1
Параметр CABAC формата : Да
Параметр ReFrames формата : 5 кадров
Идентификатор кодека : V_MPEG4/ISO/AVC
Продолжительность : 2 ч. 18 м.
Битрейт : 6758 Кбит/сек
Ширина : 1920 пикселей
Высота : 800 пикселей
Соотношение сторон : 2,40:1
Режим частоты кадров : Постоянный
Частота кадров : 23,976 кадра/сек
Цветовое пространство : YUV
Субдискретизация насыщенности : 4:2:0
Битовая глубина : 8 бит
Тип развёртки : Прогрессивная
Бит/(Пиксели*Кадры) : 0.184
Размер потока : 6,37 Гбайт (82%)
Заголовок : Rip by Boriy
Библиотека кодирования : x264 core 125 r2208 d9d2288
Настройки программы : cabac=1 / ref=5 / deblock=1:0:0 / analyse=0x3:0x113 / me=umh / subme=10 / psy=1 / psy_rd=1.00:0.10 / mixed_ref=1 / me_range=32 / chroma_me=1 / trellis=2 / 8x8dct=1 / cqm=0 / deadzone=21,11 / fast_pskip=0 / chroma_qp_offset=-3 / threads=12 / lookahead_threads=2 / sliced_threads=0 / nr=0 / decimate=0 / interlaced=0 / bluray_compat=0 / constrained_intra=0 / bframes=5 / b_pyramid=2 / b_adapt=2 / b_bias=0 / direct=3 / weightb=1 / open_gop=0 / weightp=2 / keyint=240 / keyint_min=23 / scenecut=40 / intra_refresh=0 / rc=2pass / mbtree=0 / bitrate=6758 / ratetol=1.0 / qcomp=0.60 / qpmin=0 / qpmax=69 / qpstep=4 / cplxblur=20.0 / qblur=0.5 / ip_ratio=1.40 / pb_ratio=1.30 / aq=1:0.80
Язык : English
Default : Да
Forced : Нет

Аудио #1
Идентификатор : 2
Формат : AC-3
Формат/Информация : Audio Coding 3
Расширение режима : CM (complete main)
Параметр Endianness формата : Big
Идентификатор кодека : A_AC3
Продолжительность : 2 ч. 18 м.
Вид битрейта : Постоянный
Битрейт : 640 Кбит/сек
Каналы : 6 каналов
Расположение каналов : Front: L C R, Side: L R, LFE
Частота : 48,0 КГц
Битовая глубина : 16 бит
Метод сжатия : С потерями
Размер потока : 633 Мбайт (8%)
Заголовок : Дубляж
Язык : Russian
Default : Да
Forced : Нет

Аудио #2
Идентификатор : 3
Формат : AC-3
Формат/Информация : Audio Coding 3
Расширение режима : CM (complete main)
Параметр Endianness формата : Big
Идентификатор кодека : A_AC3
Продолжительность : 2 ч. 18 м.
Вид битрейта : Постоянный
Битрейт : 640 Кбит/сек
Каналы : 6 каналов
Расположение каналов : Front: L C R, Side: L R, LFE
Частота : 48,0 КГц
Битовая глубина : 16 бит
Метод сжатия : С потерями
Размер потока : 633 Мбайт (8%)
Заголовок : Оригинал
Язык : English
Default : Нет
Forced : Нет

Текст #1
Идентификатор : 4
Формат : UTF-8
Идентификатор кодека : S_TEXT/UTF8
Идентификатор кодека/Информация : UTF-8 Plain Text
Язык : Russian
Default : Нет
Forced : Нет

Текст #2
Идентификатор : 5
Формат : UTF-8
Идентификатор кодека : S_TEXT/UTF8
Идентификатор кодека/Информация : UTF-8 Plain Text
Язык : English
Default : Нет
Forced : Нет

Меню
00:00:00.000 : :Chapter 1
00:00:00.959 : :Chapter 2
00:00:43.168 : :Chapter 3
00:01:40.892 : :Chapter 4
00:02:12.507 : :Chapter 5
00:02:49.878 : :Chapter 6
00:03:26.789 : :Chapter 7
00:03:48.019 : :Chapter 8
00:03:50.230 : :Chapter 9
00:04:16.047 : :Chapter 10
00:05:02.844 : :Chapter 11
00:05:23.573 : :Chapter 12
00:05:43.885 : :Chapter 13
00:06:10.119 : :Chapter 14
00:06:52.662 : :Chapter 15
00:07:26.654 : :Chapter 16
00:07:52.221 : :Chapter 17
00:08:13.576 : :Chapter 18
00:08:30.426 : :Chapter 19
00:08:55.368 : :Chapter 20
00:08:58.120 : :Chapter 21
00:09:07.505 : :Chapter 22
00:09:17.807 : :Chapter 23
00:09:35.783 : :Chapter 24
00:10:50.900 : :Chapter 25
00:11:24.183 : :Chapter 26
00:11:47.331 : :Chapter 27
00:12:13.691 : :Chapter 28
00:12:16.902 : :Chapter 29
00:12:25.286 : :Chapter 30
00:13:06.285 : :Chapter 31
00:14:33.497 : :Chapter 32
00:16:23.983 : :Chapter 33
00:16:24.316 : :Chapter 34
00:16:53.053 : :Chapter 35
00:17:33.052 : :Chapter 36
00:18:16.345 : :Chapter 37
00:18:45.457 : :Chapter 38
00:19:12.901 : :Chapter 39
00:19:43.182 : :Chapter 40
00:19:56.278 : :Chapter 41
00:20:36.652 : :Chapter 42
00:21:09.101 : :Chapter 43
00:22:23.091 : :Chapter 44
00:23:12.391 : :Chapter 45
00:23:29.241 : :Chapter 46
00:23:29.407 : :Chapter 47
00:23:55.517 : :Chapter 48
00:24:42.481 : :Chapter 49
00:25:07.422 : :Chapter 50
00:25:24.940 : :Chapter 51
00:26:05.063 : :Chapter 52
00:26:47.397 : :Chapter 53
00:27:25.894 : :Chapter 54
00:27:26.811 : :Chapter 55
00:29:44.908 : :Chapter 56
00:31:23.464 : :Chapter 57
00:31:42.734 : :Chapter 58
00:32:01.252 : :Chapter 59
00:32:16.684 : :Chapter 60
00:32:49.884 : :Chapter 61
00:33:29.882 : :Chapter 62
00:33:43.187 : :Chapter 63
00:33:55.867 : :Chapter 64
00:35:21.869 : :Chapter 65
00:36:53.294 : :Chapter 66
00:37:57.441 : :Chapter 67
00:38:14.000 : :Chapter 68
00:39:07.344 : :Chapter 69
00:39:39.668 : :Chapter 70
00:39:49.970 : :Chapter 71
00:40:54.160 : :Chapter 72
00:40:55.619 : :Chapter 73
00:41:39.788 : :Chapter 74
00:42:51.026 : :Chapter 75
00:43:18.137 : :Chapter 76
00:43:44.872 : :Chapter 77
00:43:44.955 : :Chapter 78
00:46:32.372 : :Chapter 79
00:47:25.592 : :Chapter 80
00:48:14.308 : :Chapter 81
00:49:02.189 : :Chapter 82
00:49:25.796 : :Chapter 83
00:50:27.899 : :Chapter 84
00:50:42.706 : :Chapter 85
00:50:49.838 : :Chapter 86
00:51:24.122 : :Chapter 87
00:52:27.060 : :Chapter 88
00:52:55.881 : :Chapter 89
00:53:29.664 : :Chapter 90
00:53:42.469 : :Chapter 91
00:55:00.714 : :Chapter 92
00:55:08.471 : :Chapter 93
00:55:51.848 : :Chapter 94
00:57:58.933 : :Chapter 95
00:59:10.797 : :Chapter 96
00:59:36.239 : :Chapter 97
01:00:03.099 : :Chapter 98
01:00:13.818 : :Chapter 99
01:00:33.546 : :Chapter 100
01:00:58.404 : :Chapter 101
01:01:20.677 : :Chapter 102
01:02:24.490 : :Chapter 103
01:02:49.766 : :Chapter 104
01:02:51.976 : :Chapter 105
01:03:17.543 : :Chapter 106
01:03:28.387 : :Chapter 107
01:04:03.005 : :Chapter 108
01:04:29.073 : :Chapter 109
01:04:59.979 : :Chapter 110
01:05:16.329 : :Chapter 111
01:05:41.437 : :Chapter 112
01:06:12.927 : :Chapter 113
01:06:36.617 : :Chapter 114
01:07:34.800 : :Chapter 115
01:08:25.017 : :Chapter 116
01:08:52.294 : :Chapter 117
01:09:59.737 : :Chapter 118
01:10:42.238 : :Chapter 119
01:11:12.768 : :Chapter 120
01:12:36.894 : :Chapter 121
01:13:06.882 : :Chapter 122
01:13:15.474 : :Chapter 123
01:13:42.376 : :Chapter 124
01:14:01.019 : :Chapter 125
01:14:37.014 : :Chapter 126
01:15:09.004 : :Chapter 127
01:15:56.969 : :Chapter 128
01:16:21.410 : :Chapter 129
01:16:27.666 : :Chapter 130
01:17:09.166 : :Chapter 131
01:17:53.251 : :Chapter 132
01:20:18.230 : :Chapter 133
01:20:30.575 : :Chapter 134
01:20:31.827 : :Chapter 135
01:20:51.805 : :Chapter 136
01:21:12.033 : :Chapter 137
01:21:48.153 : :Chapter 138
01:22:14.387 : :Chapter 139
01:22:47.128 : :Chapter 140
01:22:52.008 : :Chapter 141
01:23:45.061 : :Chapter 142
01:24:19.512 : :Chapter 143
01:24:44.871 : :Chapter 144
01:25:37.924 : :Chapter 145
01:26:09.747 : :Chapter 146
01:26:12.500 : :Chapter 147
01:26:27.390 : :Chapter 148
01:26:48.494 : :Chapter 149
01:28:41.357 : :Chapter 150
01:29:02.170 : :Chapter 151
01:29:21.439 : :Chapter 152
01:29:52.887 : :Chapter 153
01:29:53.471 : :Chapter 154
01:31:39.702 : :Chapter 155
01:32:50.898 : :Chapter 156
01:32:57.113 : :Chapter 157
01:33:23.556 : :Chapter 158
01:34:18.235 : :Chapter 159
01:34:40.424 : :Chapter 160
01:34:59.610 : :Chapter 161
01:35:55.166 : :Chapter 162
01:36:19.023 : :Chapter 163
01:37:06.070 : :Chapter 164
01:37:10.825 : :Chapter 165
01:37:38.978 : :Chapter 166
01:38:16.098 : :Chapter 167
01:39:01.977 : :Chapter 168
01:39:46.021 : :Chapter 169
01:40:05.708 : :Chapter 170
01:40:40.200 : :Chapter 171
01:40:48.625 : :Chapter 172
01:40:51.378 : :Chapter 173
01:41:03.807 : :Chapter 174
01:41:54.525 : :Chapter 175
01:42:57.504 : :Chapter 176
01:44:00.901 : :Chapter 177
01:44:57.791 : :Chapter 178
01:45:07.509 : :Chapter 179
01:45:36.288 : :Chapter 180
01:46:56.326 : :Chapter 181
01:47:26.690 : :Chapter 182
01:47:45.292 : :Chapter 183
01:48:12.152 : :Chapter 184
01:48:58.573 : :Chapter 185
01:49:22.847 : :Chapter 186
01:50:09.019 : :Chapter 187
01:50:33.376 : :Chapter 188
01:50:55.940 : :Chapter 189
01:51:39.109 : :Chapter 190
01:52:00.630 : :Chapter 191
01:52:25.572 : :Chapter 192
01:52:27.907 : :Chapter 193
01:52:49.179 : :Chapter 194
01:55:01.436 : :Chapter 195
01:55:33.551 : :Chapter 196
01:55:42.936 : :Chapter 197
01:56:22.767 : :Chapter 198
01:56:50.753 : :Chapter 199
01:57:37.550 : :Chapter 200
01:57:49.270 : :Chapter 201
01:58:00.782 : :Chapter 202
01:58:27.934 : :Chapter 203
01:58:49.539 : :Chapter 204
01:59:48.431 : :Chapter 205
02:00:29.138 : :Chapter 206
02:01:08.052 : :Chapter 207
02:01:51.470 : :Chapter 208
02:01:59.770 : :Chapter 209
02:02:27.965 : :Chapter 210
02:02:44.565 : :Chapter 211
02:03:13.135 : :Chapter 212
02:04:14.530 : :Chapter 213
02:04:18.451 : :Chapter 214
02:05:43.244 : :Chapter 215
02:06:18.153 : :Chapter 216
02:07:04.116 : :Chapter 217
02:07:12.207 : :Chapter 218
02:12:58.387 : :Chapter 219
02:16:29.681 : :Chapter 220
02:18:15.412 : :Chapter 221
Матрица: Революция / The Matrix Revolutions (2003) BDRip 1080p
Общее
Уникальный идентификатор : 234403364358823655253872905463417902421 (0xB05872231E86494CAF617F43F5B99555)
Полное имя : Матрица. Революция.2003.BDRip.1080p.Rus.Eng.mkv
Формат : Matroska
Версия формата : Version 2
Размер файла : 7,76 Гбайт
Продолжительность : 2 ч. 9 м.
Общий поток : 8598 Кбит/сек
Название фильма : Матрица: Революция.2003
Дата кодирования : UTC 2012-09-18 11:59:25
Программа кодирования : mkvmerge v5.8.0 ('No Sleep / Pillow') built on Sep 2 2012 15:37:04
Библиотека кодирования : libebml v1.2.3 + libmatroska v1.3.0

Видео
Идентификатор : 1
Формат : AVC
Формат/Информация : Advanced Video Codec
Профиль формата : High@L4.1
Параметр CABAC формата : Да
Параметр ReFrames формата : 5 кадров
Идентификатор кодека : V_MPEG4/ISO/AVC
Продолжительность : 2 ч. 9 м.
Битрейт : 7317 Кбит/сек
Ширина : 1920 пикселей
Высота : 800 пикселей
Соотношение сторон : 2,40:1
Режим частоты кадров : Постоянный
Частота кадров : 23,976 кадра/сек
Цветовое пространство : YUV
Субдискретизация насыщенности : 4:2:0
Битовая глубина : 8 бит
Тип развёртки : Прогрессивная
Бит/(Пиксели*Кадры) : 0.199
Размер потока : 6,45 Гбайт (83%)
Заголовок : Rip by Boriy
Библиотека кодирования : x264 core 125 r2208 d9d2288
Настройки программы : cabac=1 / ref=5 / deblock=1:0:0 / analyse=0x3:0x113 / me=umh / subme=10 / psy=1 / psy_rd=1.00:0.10 / mixed_ref=1 / me_range=32 / chroma_me=1 / trellis=2 / 8x8dct=1 / cqm=0 / deadzone=21,11 / fast_pskip=0 / chroma_qp_offset=-3 / threads=12 / lookahead_threads=2 / sliced_threads=0 / nr=0 / decimate=0 / interlaced=0 / bluray_compat=0 / constrained_intra=0 / bframes=5 / b_pyramid=2 / b_adapt=2 / b_bias=0 / direct=3 / weightb=1 / open_gop=0 / weightp=2 / keyint=240 / keyint_min=23 / scenecut=40 / intra_refresh=0 / rc=2pass / mbtree=0 / bitrate=7317 / ratetol=1.0 / qcomp=0.60 / qpmin=0 / qpmax=69 / qpstep=4 / cplxblur=20.0 / qblur=0.5 / ip_ratio=1.40 / pb_ratio=1.30 / aq=1:0.80
Язык : English
Default : Да
Forced : Нет

Аудио #1
Идентификатор : 2
Формат : AC-3
Формат/Информация : Audio Coding 3
Расширение режима : CM (complete main)
Параметр Endianness формата : Big
Идентификатор кодека : A_AC3
Продолжительность : 2 ч. 9 м.
Вид битрейта : Постоянный
Битрейт : 640 Кбит/сек
Каналы : 6 каналов
Расположение каналов : Front: L C R, Side: L R, LFE
Частота : 48,0 КГц
Битовая глубина : 16 бит
Метод сжатия : С потерями
Размер потока : 592 Мбайт (7%)
Заголовок : Дубляж
Язык : Russian
Default : Да
Forced : Нет

Аудио #2
Идентификатор : 3
Формат : AC-3
Формат/Информация : Audio Coding 3
Расширение режима : CM (complete main)
Параметр Endianness формата : Big
Идентификатор кодека : A_AC3
Продолжительность : 2 ч. 9 м.
Вид битрейта : Постоянный
Битрейт : 640 Кбит/сек
Каналы : 6 каналов
Расположение каналов : Front: L C R, Side: L R, LFE
Частота : 48,0 КГц
Битовая глубина : 16 бит
Метод сжатия : С потерями
Размер потока : 592 Мбайт (7%)
Заголовок : Оригинал
Язык : English
Default : Нет
Forced : Нет

Текст #1
Идентификатор : 4
Формат : UTF-8
Идентификатор кодека : S_TEXT/UTF8
Идентификатор кодека/Информация : UTF-8 Plain Text
Язык : Russian
Default : Нет
Forced : Нет

Текст #2
Идентификатор : 5
Формат : UTF-8
Идентификатор кодека : S_TEXT/UTF8
Идентификатор кодека/Информация : UTF-8 Plain Text
Язык : English
Default : Нет
Forced : Нет

Меню
00:00:00.000 : :Chapter 1
00:00:07.841 : :Chapter 2
00:00:42.792 : :Chapter 3
00:03:55.401 : :Chapter 4
00:04:06.579 : :Chapter 5
00:04:58.881 : :Chapter 6
00:05:26.826 : :Chapter 7
00:07:07.510 : :Chapter 8
00:07:33.119 : :Chapter 9
00:07:33.661 : :Chapter 10
00:09:11.717 : :Chapter 11
00:10:19.952 : :Chapter 12
00:10:30.379 : :Chapter 13
00:11:40.199 : :Chapter 14
00:13:05.493 : :Chapter 15
00:14:23.153 : :Chapter 16
00:14:44.383 : :Chapter 17
00:15:43.901 : :Chapter 18
00:16:34.034 : :Chapter 19
00:17:57.993 : :Chapter 20
00:17:58.744 : :Chapter 21
00:18:49.253 : :Chapter 22
00:19:48.604 : :Chapter 23
00:20:32.522 : :Chapter 24
00:21:17.693 : :Chapter 25
00:22:21.131 : :Chapter 26
00:22:59.002 : :Chapter 27
00:23:33.245 : :Chapter 28
00:23:51.555 : :Chapter 29
00:24:12.325 : :Chapter 30
00:24:27.340 : :Chapter 31
00:25:28.068 : :Chapter 32
00:26:07.857 : :Chapter 33
00:27:29.773 : :Chapter 34
00:28:15.151 : :Chapter 35
00:29:30.560 : :Chapter 36
00:30:06.304 : :Chapter 37
00:30:55.937 : :Chapter 38
00:32:44.379 : :Chapter 39
00:33:32.844 : :Chapter 40
00:34:48.878 : :Chapter 41
00:35:35.633 : :Chapter 42
00:35:38.177 : :Chapter 43
00:37:49.517 : :Chapter 44
00:38:18.629 : :Chapter 45
00:38:53.247 : :Chapter 46
00:39:34.205 : :Chapter 47
00:39:48.302 : :Chapter 48
00:40:14.870 : :Chapter 49
00:40:50.197 : :Chapter 50
00:42:10.027 : :Chapter 51
00:42:58.909 : :Chapter 52
00:43:02.079 : :Chapter 53
00:45:09.540 : :Chapter 54
00:45:51.999 : :Chapter 55
00:46:43.300 : :Chapter 56
00:46:47.888 : :Chapter 57
00:47:31.056 : :Chapter 58
00:47:53.620 : :Chapter 59
00:49:02.606 : :Chapter 60
00:49:21.541 : :Chapter 61
00:50:12.467 : :Chapter 62
00:51:05.896 : :Chapter 63
00:51:53.610 : :Chapter 64
00:52:52.335 : :Chapter 65
00:53:54.272 : :Chapter 66
00:55:23.069 : :Chapter 67
00:57:59.767 : :Chapter 68
00:58:00.643 : :Chapter 69
00:58:37.597 : :Chapter 70
00:59:50.503 : :Chapter 71
01:00:19.115 : :Chapter 72
01:00:43.389 : :Chapter 73
01:01:53.459 : :Chapter 74
01:02:28.327 : :Chapter 75
01:02:29.746 : :Chapter 76
01:03:45.279 : :Chapter 77
01:04:13.432 : :Chapter 78
01:05:11.365 : :Chapter 79
01:06:01.832 : :Chapter 80
01:06:30.695 : :Chapter 81
01:08:00.910 : :Chapter 82
01:08:03.454 : :Chapter 83
01:08:47.581 : :Chapter 84
01:09:31.000 : :Chapter 85
01:10:17.713 : :Chapter 86
01:10:29.225 : :Chapter 87
01:11:06.845 : :Chapter 88
01:12:29.928 : :Chapter 89
01:12:52.117 : :Chapter 90
01:13:40.499 : :Chapter 91
01:14:33.802 : :Chapter 92
01:14:37.556 : :Chapter 93
01:15:06.210 : :Chapter 94
01:15:46.166 : :Chapter 95
01:17:21.094 : :Chapter 96
01:18:23.365 : :Chapter 97
01:18:44.136 : :Chapter 98
01:19:27.512 : :Chapter 99
01:20:44.923 : :Chapter 100
01:21:53.033 : :Chapter 101
01:23:08.984 : :Chapter 102
01:23:15.740 : :Chapter 103
01:23:48.732 : :Chapter 104
01:25:02.597 : :Chapter 105
01:25:54.566 : :Chapter 106
01:25:55.817 : :Chapter 107
01:27:10.308 : :Chapter 108
01:28:00.108 : :Chapter 109
01:28:44.610 : :Chapter 110
01:29:13.348 : :Chapter 111
01:29:32.700 : :Chapter 112
01:30:03.064 : :Chapter 113
01:30:36.264 : :Chapter 114
01:31:25.188 : :Chapter 115
01:31:44.624 : :Chapter 116
01:31:51.672 : :Chapter 117
01:32:18.241 : :Chapter 118
01:33:34.233 : :Chapter 119
01:34:56.482 : :Chapter 120
01:35:50.494 : :Chapter 121
01:36:51.472 : :Chapter 122
01:37:29.134 : :Chapter 123
01:38:56.013 : :Chapter 124
01:39:27.628 : :Chapter 125
01:40:54.006 : :Chapter 126
01:41:55.275 : :Chapter 127
01:41:55.776 : :Chapter 128
01:42:37.442 : :Chapter 129
01:43:52.809 : :Chapter 130
01:44:17.626 : :Chapter 131
01:44:53.120 : :Chapter 132
01:45:35.245 : :Chapter 133
01:46:14.117 : :Chapter 134
01:46:29.716 : :Chapter 135
01:47:13.510 : :Chapter 136
01:47:49.045 : :Chapter 137
01:48:06.646 : :Chapter 138
01:48:10.817 : :Chapter 139
01:48:53.193 : :Chapter 140
01:49:32.524 : :Chapter 141
01:50:10.061 : :Chapter 142
01:50:43.845 : :Chapter 143
01:51:30.850 : :Chapter 144
01:52:24.946 : :Chapter 145
01:53:46.611 : :Chapter 146
01:54:50.425 : :Chapter 147
01:55:05.899 : :Chapter 148
01:55:33.176 : :Chapter 149
01:57:06.644 : :Chapter 150
01:57:27.957 : :Chapter 151
01:57:31.210 : :Chapter 152
01:58:52.208 : :Chapter 153
01:59:51.601 : :Chapter 154
02:00:12.371 : :Chapter 155
02:00:12.830 : :Chapter 156
02:02:14.368 : :Chapter 157
02:04:34.842 : :Chapter 158
02:09:15.664 : :Chapter 159
Оповестить о раздаче Включить оповещение на почту ( о новом торрент-файле ), когда появится раздача с похожим названием: Матрица: Трилогия, The Matrix: Trilogy

E-Mail адрес:
Внимание: Если вы не авторизованы, то для вас будет создана временная учетная запись (доступ к аккаунту будет прикреплен в письме).
Похожие файлы
Загрузка / Обновление
Категория Фильмы / HDTV / HD / Blu-Ray RSS лента
Добавлен (1 год, 11 месяцев назад)
Просмотров 32 раз (a)
Взят 0 раз (a)
Файлы 3, 23.29 GB (25 009 712 842 байт)
Оценка
IMDB: 8.7, 1,001,131 голоса (ов), Кинопоиск: 8.512, 231983 голоса (ов)
Раздал ViKa  (Искать торренты)
Участники
Завершено: 0 (0)
Просматривают

« Guild Of Ages - Discography / Rock -†- ¿? -†- Celine Dion - My Heart Will Go On Singles / Pop »

:: Список Комментариев
Нет комментариев.

 Нет комментариев

Счетчики
Рейтинг@Mail.ru


Поделитесь в социальных сетях


Быстрый Поиск





Спасибо Вам
Мы благодарны этим людям в поддержке сайта:
ilmarr, valmit2011
Попади и ты в этот блок, поставь оценку 5 и получи 300 MB к отдаче:
Войти на сайт сейчас.

Правообладателям
По всем вопросам сотрудничества, удаления авторских файлов "пачкой", просьба отписаться по адреcу:
abuse@muz-tracker.net

Наши группы в VK, OK