Загрузка...


Самые активные релизы за неделю
Музыка / Мультимедиа Фильмы / AVI / MKV / MP4 Фильмы / HD / Full HD / Blu-Ray / 2K / 4K
VA - Boom Hits Vol.745 [2017 / MP3 / 320] [Dance]
  • VA - Boom Hits Vol.745  [2017 / MP3 / 320] [Dance]
  • Gorillaz - Humanz [2017 / MP3 / 320] [Electronic]
  • The Disco Swing (Vol.2) ( Nu Jazz / 2017 )
  • Лоя - Лоя ( Поп / 2017 )
  • Дискотека 2017 (Dance Club) The Best and Newst Hits ( Club / 2017 )
  • Popular European Megamix ( Pop / 2017 )
  • German Top 100 Single Charts (21.04.2017) ( Pop / 2017 )
  • Eurovision Song Contest 2017 Kyiv (Karaoke Version) (iTunes) ( Pop / 2017 )
  • VA - I Love Music! - Trap Edition Vol. 38 [2017 / MP3 / 320] [Electronic]
  • A Place In Space: Instrumental Spring Version ( Relax / 2017 )
  • Song Jing Yu - How to sing? [2017 / MP3 / 320] [Ballad]
  • ATB - neXt [2017 / MP3 / 320] [Trance]


:: Детали раздачи

Три богатыря: Пенталогия (2004-2012) DVDRip | Лицензия

Скачать Скачать .torrent файл (основная ссылка для скачивания файла)
Смотреть / Слушать онлайн просмотр (ссылка для просмотра файла через плагин 'Torrent Stream')
Magnet-ссылка (альтернативная ссылка для скачивания файла)
Теги / Метки мультфильм, комедия, приключения, мюзикл, фэнтези, мелодрама, семейный и др, 2004
Описание
Информация о фильме
Название: Три богатыря: Пенталогия
Годы выхода: 2004-2012
Жанр: мультфильм, комедия, приключения, мюзикл, фэнтези, мелодрама, семейный и др.

Режиссеры: Константин Бронзит, Илья Максимов, Владимир Торопчин, Сергей Глезин, Константин Феоктистов
Перевод: не требуется


Алеша Попович и Тугарин Змей (2004) DVDRip | КПК | Лицензия
General
Complete name : 1 Алёша Попович и Тугарин Змей.mp4
Format : MPEG-4
Format profile : Base Media
Codec ID : isom
File size : 405 MiB
Duration : 1h 17mn
Overall bit rate : 735 Kbps
Writing application : XviD4PSP 6.0 / 54.14.100
Copyright : R.G. Jolly Roger [Pirat.CA]

Video
ID : 1
Format : AVC
Format/Info : Advanced Video Codec
Format profile : Main@L4.1
Format settings, CABAC : Yes
Format settings, ReFrames : 3 frames
Codec ID : avc1
Codec ID/Info : Advanced Video Coding
Duration : 1h 17mn
Bit rate : 603 Kbps
Width : 640 pixels
Height : 336 pixels
Display aspect ratio : 1.85:1
Original display aspect ratio : 1.85:1
Frame rate mode : Constant
Frame rate : 23.976 fps
Color space : YUV
Chroma subsampling : 4:2:0
Bit depth : 8 bits
Scan type : Progressive
Bits/(Pixel*Frame) : 0.117
Stream size : 332 MiB (82%)
Writing library : x264 core 125 r2200M 999b753
Encoding settings : cabac=1 / ref=3 / deblock=1:0:0 / analyse=0x1:0x131 / me=dia / subme=5 / psy=1 / psy_rd=1.00:0.20 / mixed_ref=1 / me_range=16 / chroma_me=1 / trellis=0 / 8x8dct=0 / cqm=0 / deadzone=21,11 / fast_pskip=1 / chroma_qp_offset=0 / threads=2 / lookahead_threads=1 / sliced_threads=0 / nr=0 / decimate=1 / interlaced=0 / bluray_compat=0 / constrained_intra=0 / bframes=3 / b_pyramid=0 / b_adapt=0 / b_bias=0 / direct=3 / weightb=1 / open_gop=0 / weightp=0 / keyint=230 / keyint_min=23 / scenecut=40 / intra_refresh=0 / rc_lookahead=40 / rc=crf / mbtree=1 / crf=20.0 / qcomp=0.60 / qpmin=10 / qpmax=51 / qpstep=4 / vbv_maxrate=5000 / vbv_bufsize=1835 / crf_max=30.0 / nal_hrd=none / ip_ratio=1.40 / aq=1:1.00

Audio
ID : 2
Format : AAC
Format/Info : Advanced Audio Codec
Format profile : LC
Codec ID : 40
Duration : 1h 17mn
Bit rate mode : Constant
Bit rate : 128 Kbps
Channel(s) : 2 channels
Channel positions : Front: L R
Sampling rate : 48.0 KHz
Compression mode : Lossy
Delay relative to video : 42ms
Stream size : 70.5 MiB (17%)
Скриншоты

Добрыня Никитич и Змей Горыныч (2006) DVDRip | КПК | Лицензия
General
Complete name : 2 Добрыня Никитич и Змей Горыныч.mp4
Format : MPEG-4
Format profile : Base Media
Codec ID : isom
File size : 399 MiB
Duration : 1h 6mn
Overall bit rate : 837 Kbps
Writing application : XviD4PSP 6.0 / 54.14.100
Copyright : R.G. Jolly Roger [Pirat.CA]

Video
ID : 1
Format : AVC
Format/Info : Advanced Video Codec
Format profile : Main@L4.1
Format settings, CABAC : Yes
Format settings, ReFrames : 3 frames
Codec ID : avc1
Codec ID/Info : Advanced Video Coding
Duration : 1h 6mn
Bit rate : 704 Kbps
Width : 640 pixels
Height : 336 pixels
Display aspect ratio : 1.85:1
Original display aspect ratio : 1.85:1
Frame rate mode : Constant
Frame rate : 23.976 fps
Color space : YUV
Chroma subsampling : 4:2:0
Bit depth : 8 bits
Scan type : Progressive
Bits/(Pixel*Frame) : 0.137
Stream size : 336 MiB (84%)
Writing library : x264 core 125 r2200M 999b753
Encoding settings : cabac=1 / ref=3 / deblock=1:0:0 / analyse=0x1:0x131 / me=dia / subme=5 / psy=1 / psy_rd=1.00:0.20 / mixed_ref=1 / me_range=16 / chroma_me=1 / trellis=0 / 8x8dct=0 / cqm=0 / deadzone=21,11 / fast_pskip=1 / chroma_qp_offset=0 / threads=2 / lookahead_threads=1 / sliced_threads=0 / nr=0 / decimate=1 / interlaced=0 / bluray_compat=0 / constrained_intra=0 / bframes=3 / b_pyramid=0 / b_adapt=0 / b_bias=0 / direct=3 / weightb=1 / open_gop=0 / weightp=0 / keyint=230 / keyint_min=23 / scenecut=40 / intra_refresh=0 / rc_lookahead=40 / rc=crf / mbtree=1 / crf=20.0 / qcomp=0.60 / qpmin=10 / qpmax=51 / qpstep=4 / vbv_maxrate=5000 / vbv_bufsize=1835 / crf_max=30.0 / nal_hrd=none / ip_ratio=1.40 / aq=1:1.00

Audio
ID : 2
Format : AAC
Format/Info : Advanced Audio Codec
Format profile : LC
Codec ID : 40
Duration : 1h 6mn
Bit rate mode : Constant
Bit rate : 128 Kbps
Channel(s) : 2 channels
Channel positions : Front: L R
Sampling rate : 48.0 KHz
Compression mode : Lossy
Delay relative to video : 42ms
Stream size : 61.0 MiB (15%)
Скриншоты

Илья Муромец и Соловей Разбойник (2007) DVDRip | КПК | Лицензия
General
Complete name : 3 Илья Муромец и Соловей Разбойник.mp4
Format : MPEG-4
Format profile : Base Media
Codec ID : isom
File size : 450 MiB
Duration : 1h 18mn
Overall bit rate : 804 Kbps
Writing application : XviD4PSP 6.0 / 54.14.100
Copyright : R.G. Jolly Roger [Pirat.CA]

Video
ID : 1
Format : AVC
Format/Info : Advanced Video Codec
Format profile : Main@L4.1
Format settings, CABAC : Yes
Format settings, ReFrames : 3 frames
Codec ID : avc1
Codec ID/Info : Advanced Video Coding
Duration : 1h 18mn
Bit rate : 671 Kbps
Width : 640 pixels
Height : 336 pixels
Display aspect ratio : 1.85:1
Original display aspect ratio : 1.85:1
Frame rate mode : Constant
Frame rate : 23.976 fps
Color space : YUV
Chroma subsampling : 4:2:0
Bit depth : 8 bits
Scan type : Progressive
Bits/(Pixel*Frame) : 0.130
Stream size : 375 MiB (83%)
Writing library : x264 core 125 r2200M 999b753
Encoding settings : cabac=1 / ref=3 / deblock=1:0:0 / analyse=0x1:0x131 / me=dia / subme=5 / psy=1 / psy_rd=1.00:0.20 / mixed_ref=1 / me_range=16 / chroma_me=1 / trellis=0 / 8x8dct=0 / cqm=0 / deadzone=21,11 / fast_pskip=1 / chroma_qp_offset=0 / threads=2 / lookahead_threads=1 / sliced_threads=0 / nr=0 / decimate=1 / interlaced=0 / bluray_compat=0 / constrained_intra=0 / bframes=3 / b_pyramid=0 / b_adapt=0 / b_bias=0 / direct=3 / weightb=1 / open_gop=0 / weightp=0 / keyint=230 / keyint_min=23 / scenecut=40 / intra_refresh=0 / rc_lookahead=40 / rc=crf / mbtree=1 / crf=20.0 / qcomp=0.60 / qpmin=10 / qpmax=51 / qpstep=4 / vbv_maxrate=5000 / vbv_bufsize=1835 / crf_max=30.0 / nal_hrd=none / ip_ratio=1.40 / aq=1:1.00

Audio
ID : 2
Format : AAC
Format/Info : Advanced Audio Codec
Format profile : LC
Codec ID : 40
Duration : 1h 18mn
Bit rate mode : Constant
Bit rate : 128 Kbps
Channel(s) : 2 channels
Channel positions : Front: L R
Sampling rate : 48.0 KHz
Compression mode : Lossy
Delay relative to video : 42ms
Stream size : 71.6 MiB (16%)
Скриншоты

Три богатыря и Шамаханская царица (2010) DVDRip | КПК | Лицензия
General
Complete name : 4 Три богатыря и Шамаханская Царица.mp4
Format : MPEG-4
Format profile : Base Media
Codec ID : isom
File size : 366 MiB
Duration : 1h 15mn
Overall bit rate : 680 Kbps
Writing application : XviD4PSP 6.0 / 54.14.100
Copyright : R.G. Jolly Roger [Pirat.CA]

Video
ID : 1
Format : AVC
Format/Info : Advanced Video Codec
Format profile : Main@L4.1
Format settings, CABAC : Yes
Format settings, ReFrames : 3 frames
Codec ID : avc1
Codec ID/Info : Advanced Video Coding
Duration : 1h 15mn
Bit rate : 548 Kbps
Width : 640 pixels
Height : 352 pixels
Display aspect ratio : 16:9
Frame rate mode : Constant
Frame rate : 24.000 fps
Color space : YUV
Chroma subsampling : 4:2:0
Bit depth : 8 bits
Scan type : Progressive
Bits/(Pixel*Frame) : 0.101
Stream size : 295 MiB (80%)
Writing library : x264 core 125 r2200M 999b753
Encoding settings : cabac=1 / ref=3 / deblock=1:0:0 / analyse=0x1:0x131 / me=dia / subme=5 / psy=1 / psy_rd=1.00:0.20 / mixed_ref=1 / me_range=16 / chroma_me=1 / trellis=0 / 8x8dct=0 / cqm=0 / deadzone=21,11 / fast_pskip=1 / chroma_qp_offset=0 / threads=2 / lookahead_threads=1 / sliced_threads=0 / nr=0 / decimate=1 / interlaced=0 / bluray_compat=0 / constrained_intra=0 / bframes=3 / b_pyramid=0 / b_adapt=0 / b_bias=0 / direct=3 / weightb=1 / open_gop=0 / weightp=0 / keyint=240 / keyint_min=24 / scenecut=40 / intra_refresh=0 / rc_lookahead=40 / rc=crf / mbtree=1 / crf=20.0 / qcomp=0.60 / qpmin=10 / qpmax=51 / qpstep=4 / vbv_maxrate=5000 / vbv_bufsize=1835 / crf_max=30.0 / nal_hrd=none / ip_ratio=1.40 / aq=1:1.00

Audio
ID : 2
Format : AAC
Format/Info : Advanced Audio Codec
Format profile : LC
Codec ID : 40
Duration : 1h 15mn
Bit rate mode : Constant
Bit rate : 128 Kbps
Channel(s) : 2 channels
Channel positions : Front: L R
Sampling rate : 48.0 KHz
Compression mode : Lossy
Delay relative to video : 42ms
Stream size : 68.9 MiB (19%)
Language : Russian
Скриншоты

Три богатыря на дальних берегах (2012) DVDRip | КПК | Лицензия
General
Complete name : 5 Три богатыря на дальних берегах.mp4
Format : MPEG-4
Format profile : Base Media
Codec ID : isom
File size : 405 MiB
Duration : 1h 8mn
Overall bit rate : 827 Kbps
Writing application : XviD4PSP 6.0 / 54.29.105

Video
ID : 1
Format : AVC
Format/Info : Advanced Video Codec
Format profile : Main@L4.1
Format settings, CABAC : Yes
Format settings, ReFrames : 3 frames
Codec ID : avc1
Codec ID/Info : Advanced Video Coding
Duration : 1h 8mn
Bit rate : 693 Kbps
Width : 640 pixels
Height : 352 pixels
Display aspect ratio : 16:9
Frame rate mode : Constant
Frame rate : 25.000 fps
Color space : YUV
Chroma subsampling : 4:2:0
Bit depth : 8 bits
Scan type : Progressive
Bits/(Pixel*Frame) : 0.123
Stream size : 339 MiB (84%)
Writing library : x264 core 128 r2216M 198a7ea
Encoding settings : cabac=1 / ref=3 / deblock=1:0:0 / analyse=0x1:0x131 / me=hex / subme=7 / psy=1 / psy_rd=1.00:0.20 / mixed_ref=1 / me_range=16 / chroma_me=1 / trellis=1 / 8x8dct=0 / cqm=0 / deadzone=21,11 / fast_pskip=1 / chroma_qp_offset=-3 / threads=8 / lookahead_threads=1 / sliced_threads=0 / nr=0 / decimate=1 / interlaced=0 / bluray_compat=0 / constrained_intra=0 / bframes=3 / b_pyramid=0 / b_adapt=2 / b_bias=0 / direct=3 / weightb=1 / open_gop=0 / weightp=0 / keyint=250 / keyint_min=25 / scenecut=40 / intra_refresh=0 / rc_lookahead=40 / rc=crf / mbtree=1 / crf=20.0 / qcomp=0.60 / qpmin=10 / qpmax=51 / qpstep=4 / vbv_maxrate=5000 / vbv_bufsize=1835 / crf_max=30.0 / nal_hrd=none / ip_ratio=1.40 / aq=1:1.00

Audio
ID : 2
Format : AAC
Format/Info : Advanced Audio Codec
Format profile : LC
Codec ID : 40
Duration : 1h 8mn
Bit rate mode : Constant
Bit rate : 128 Kbps
Channel(s) : 2 channels
Channel positions : Front: L R
Sampling rate : 48.0 KHz
Compression mode : Lossy
Delay relative to video : 40ms
Stream size : 62.6 MiB (15%)
Language : Russian[spoiler=Скриншоты]
http://i48.fastpic.ru/big/2013/0729/c5/3fe3d68418f05ccb8cab0414bcfc63c5.png http://i46.fastpic.ru/big/2013/0729/fe/20e326c83e172608f33a93f075ca5dfe.png http://i46.fastpic.ru/big/2013/0729/04/bf8ca5817c716f674971ede46e66cd04.png
http://i48.fastpic.ru/big/2013/0729/ab/4c94f2dbaa982241a7b90602231c2eab.png http://i46.fastpic.ru/big/2013/0729/77/011a1efd330a4d7dbc69eab5d593b577.png http://i48.fastpic.ru/big/2013/0729/07/b847c28eccef92008ee05520d2283f07.png

http://i47.fastpic.ru/big/2013/0725/f9/0f6f0bc2a31205668eab81d5d8f614f9.png
Скриншоты
Похожие файлы
Загрузка / Обновление
Категория Мультфильмы RSS лента
Добавлен (2 года, 4 месяца назад)
Просмотров 181 раз (a)
Взят 0 раз (a)
Файлы 5, 1.98 GB (2 122 980 607 байт)
Оценка
IMDB: 7.1, 1022 голоса (ов), Кинопоиск: 7.754, 46110 голоса (ов)
Раздал ViKa  (Искать торренты)
Участники
Раздают (отдают): 0 (61), Скачивают (качают): 0 (3), Завершено: 0 (9)
Просматривают

« Зачётный препод / Fack ju Ghte (2013) BDRip 1080p | Чистый звук, A -†- ¿? -†- В ловушке времени / Timeline (2003) BDRip 720p »

:: Список Комментариев
Нет комментариев.

 Нет комментариев

Поблагодарите нас, взамен, мы будем заливать еще больше раздач!


Счетчики
Рейтинг@Mail.ru Яндекс.Метрика


Быстрый Поиск





Спасибо Вам
Мы благодарны этим людям в поддержке сайта:
Нет данных для показа
Попади и ты в этот блок, поставь оценку 5 и получи 300 MB к отдаче:
Войти на сайт сейчас.

Правообладателям
По всем вопросам сотрудничества, удаления авторских файлов "пачкой", просьба отписаться по адреcу:
abuse@muz-tracker.net

Наши группы в VK, OK