Загрузка...


Самые активные релизы за неделю
Музыка / Мультимедиа Фильмы / AVI / MKV / MP4 Фильмы / HD / Full HD / Blu-Ray / 2K / 4K
VA - Boom Hits Vol.745 [2017 / MP3 / 320] [Dance]
  • VA - Boom Hits Vol.745  [2017 / MP3 / 320] [Dance]
  • Gorillaz - Humanz [2017 / MP3 / 320] [Electronic]
  • Дискотека 2017 (Dance Club) The Best and Newst Hits ( Club / 2017 )
  • Deep House Collection (Vol.117) ( House / 2017 )
  • Symphonic & Opera Metal - Collection / Metal
  • German Top 100 Single Charts (21.04.2017) ( Pop / 2017 )
  • Лоя - Лоя ( Поп / 2017 )
  • Eurovision Song Contest 2017 Kyiv (Karaoke Version) (iTunes) ( Pop / 2017 )
  • The Disco Swing (Vol.2) ( Nu Jazz / 2017 )
  • ATB - neXt [2017 / MP3 / 320] [Trance]
  • Popular European Megamix ( Pop / 2017 )
  • Song Jing Yu - How to sing? [2017 / MP3 / 320] [Ballad]


:: Детали раздачи

Alizee - Blonde

Скачать Скачать .torrent файл (основная ссылка для скачивания файла)
Смотреть / Слушать онлайн просмотр (ссылка для просмотра файла через плагин 'Torrent Stream')
Magnet-ссылка (альтернативная ссылка для скачивания файла)
Теги / Метки pop, 2014
Описание
Формат: WEBRip, MP4, H.264, AAC
Песня: Blonde
Жанр: Pop
Продолжительность: 00:03:28
Год выпуска: 2014

Видео: 1920x1080р (16:9), 25,000 fps, AVC (x264) www.dvdvideosoft.com


Видео
Идентификатор : 1
Формат : AVC
Формат/Информация : Advanced Video Codec
Профиль формата : High@L4.0
Параметр CABAC формата : Да
Параметр ReFrames формата : 2 кадра
Идентификатор кодека : avc1
Идентификатор кодека/Информация : Advanced Video Coding
Продолжительность : 3 м. 28 с.
Битрейт : 3877 Кбит/сек
Ширина : 1920 пикселей
Высота : 1080 пикселей
Соотношение сторон : 16:9
Режим частоты кадров : Постоянный
Частота кадров : 25,000 кадров/сек
Цветовое пространство : YUV
Субдискретизация насыщенности : 4:2:0
Битовая глубина : 8 бит
Тип развёртки : Прогрессивная
Бит/(Пиксели*Кадры) : 0.075
Размер потока : 96,2 Мбайт (97%)

Аудио
Идентификатор : 2
Формат : AAC
Формат/Информация : Advanced Audio Codec
Профиль формата : LC
Идентификатор кодека : 40
Продолжительность : 3 м. 28 с.
Вид битрейта : Постоянный
Битрейт : 126 Кбит/сек
Каналы : 2 канала
Расположение каналов : Front: L R
Частота : 44,1 КГц
Метод сжатия : С потерями
Задержка видео : 40 мс.
Размер потока : 3,12 Мбайт (3%)


[/spoiler]


Показать скриншоты
Скриншоты
Похожие файлы
Загрузка / Обновление
Категория Музыка / Мультимедиа RSS лента
Добавлен (2 года, 4 месяца назад)
Просмотров 70 раз (a)
Взят 0 раз (a)
Файлы 1, 99.53 MB (104 362 839 байт)
Раздал ViKa  (Искать торренты)
Участники
Раздают (отдают): 0 (4), Скачивают (качают): 0 (1), Завершено: 0 (1)
Просматривают

« Сборник - Штрафбат - 1 -†- ¿? -†- 3 mobile games (java) »

:: Список Комментариев
Нет комментариев.

 Нет комментариев

Поблагодарите нас, взамен, мы будем заливать еще больше раздач!


Счетчики
Рейтинг@Mail.ru Яндекс.Метрика


Быстрый Поиск





Спасибо Вам
Мы благодарны этим людям в поддержке сайта:
Нет данных для показа
Попади и ты в этот блок, поставь оценку 5 и получи 300 MB к отдаче:
Войти на сайт сейчас.

Правообладателям
По всем вопросам сотрудничества, удаления авторских файлов "пачкой", просьба отписаться по адреcу:
abuse@muz-tracker.net

Наши группы в VK, OK