Самые активные релизы за неделю
Музыка / Мультимедиа Мультфильмы Сериалы Фильмы / AVI / MKV / MP4 Фильмы / HD / Full HD / Blu-Ray / 2K / 4K
Armin van Buuren - A State of Trance 826 [2017 / MP3 / 320] [Trance]
  • Armin van Buuren - A State of Trance 826 [2017 / MP3 / 320] [Trance]
  • VA - Любимый хит в машину (2017) MP3
  • VA - С глаз долой. Суперсборник русского шансона (2017) MP3
  • Soul Deep 08: Smooth Jazz Review ( Smooth jazz / 2017 )
  • VA - Boom Hits Vol.765 - 2017 [2017 / MP3 / 320] [Dance]
  • Александр Рыбкин - Коллекция [3 Альбома] (1988-1995) FLAC
  • Schlagerstyle - Die besten Discofox Hits 2017 fur deine Fox Party 2018 ( Pop / 2017 )
  • Armin van Buuren - A state of Trance (827) Special ( Trance / 2017 )
  • Hot Auto Hits (№2) ( Club / 2017 )
  • Oliver Nelson - Verve Jazz Masters 48 (1995) MP3
  • LUXEmusic - Dance Super Chart Vol.87 (2016) MP3
  • VA - Громче чем Бомба. Жаркий Уикенд [Sound Clinic - Bass Edition] (2017) MP3


:: Детали раздачи

Alizee - Blonde

Скачать Скачать .torrent файл (основная ссылка для скачивания файла)
Смотреть / Слушать онлайн просмотр (ссылка для просмотра файла через плагин 'Torrent Stream')
Magnet-ссылка (альтернативная ссылка для скачивания файла)
Теги / Метки pop, 2014
Описание
Alizee - Blonde
Формат: WEBRip, MP4, H.264, AAC
Песня: Blonde
Жанр: Pop
Продолжительность: 00:03:28
Год выпуска: 2014

Видео: 1920x1080р (16:9), 25,000 fps, AVC (x264) www.dvdvideosoft.com


Видео
Идентификатор : 1
Формат : AVC
Формат/Информация : Advanced Video Codec
Профиль формата : High@L4.0
Параметр CABAC формата : Да
Параметр ReFrames формата : 2 кадра
Идентификатор кодека : avc1
Идентификатор кодека/Информация : Advanced Video Coding
Продолжительность : 3 м. 28 с.
Битрейт : 3877 Кбит/сек
Ширина : 1920 пикселей
Высота : 1080 пикселей
Соотношение сторон : 16:9
Режим частоты кадров : Постоянный
Частота кадров : 25,000 кадров/сек
Цветовое пространство : YUV
Субдискретизация насыщенности : 4:2:0
Битовая глубина : 8 бит
Тип развёртки : Прогрессивная
Бит/(Пиксели*Кадры) : 0.075
Размер потока : 96,2 Мбайт (97%)

Аудио
Идентификатор : 2
Формат : AAC
Формат/Информация : Advanced Audio Codec
Профиль формата : LC
Идентификатор кодека : 40
Продолжительность : 3 м. 28 с.
Вид битрейта : Постоянный
Битрейт : 126 Кбит/сек
Каналы : 2 канала
Расположение каналов : Front: L R
Частота : 44,1 КГц
Метод сжатия : С потерями
Задержка видео : 40 мс.
Размер потока : 3,12 Мбайт (3%)


[/spoiler]


Показать скриншоты
Скриншоты Alizee - Blonde #0Alizee - Blonde #1Alizee - Blonde #2Alizee - Blonde #3
Похожие файлы
Загрузка / Обновление
Категория Музыка / Мультимедиа RSS лента
Добавлен (2 года, 8 месяцев назад)
Просмотров 82 раз (a)
Взят 0 раз (a)
Файлы 1, 99.53 MB (104 362 839 байт)
Раздал ViKa  (Искать торренты)
Участники
Раздают (отдают): 0 (4), Скачивают (качают): 0 (1), Завершено: 0 (1)
Просматривают

« Сборник - Штрафбат - 1 -†- ¿? -†- 3 mobile games (java) »

:: Список Комментариев
Нет комментариев.

 Нет комментариев

Поблагодарите нас, взамен, мы будем заливать еще больше раздач!


Счетчики
Рейтинг@Mail.ru Яндекс.Метрика


Поделитесь в социальных сетях


Быстрый Поиск





Спасибо Вам
Мы благодарны этим людям в поддержке сайта:
oiproger, Dr@go_MaStEr
Попади и ты в этот блок, поставь оценку 5 и получи 300 MB к отдаче:
Войти на сайт сейчас.

Правообладателям
По всем вопросам сотрудничества, удаления авторских файлов "пачкой", просьба отписаться по адреcу:
abuse@muz-tracker.net

Наши группы в VK, OK