Самые активные релизы за неделю
Музыка / Мультимедиа Сериалы Фильмы / AVI
Michael Jackson - King of Pop [2CD Deluxe UK Edition] (2015) MP3
  • Michael Jackson - King of Pop [2CD Deluxe UK Edition] (2015) MP3
  • VA - I Love Music! - Hard Rock Edition Vol.31 [2017 / MP3 / 320] [Hard Rock]
  • VA - Cold Emotions Melancholic Piano Melodies Collection (2014) MP3
  • VA - Kiss FM UA - TOP 40 PARADE - 05 February  [2017 / MP3 / 320] [Club]
  • VA - Полный отрыв. Зимние хиты (2016) MP3
  • VA - Trance In Motion Volume 209 (Mixed by Emil Sorous) [2017 / MP3 / 320] [Trance]
  • VA - Retro Party. Favorite Hits 80-90's [2017 / MP3 / 320] [Disco]
  • Сборник - Зимняя 100-ка хитовая (2014) MP3
  • VA - Kiss FM Fresh Top 40 - 4 Februarie 2017 [2017 / MP3 / 320] [Dance]
  • VA - Top 100 Beatport Downloads January [2017 / MP3 / 320] [House]
  • Evanescence - Lost Whispers [2016 / MP3 / 320] [Alternative]
  • Schiller [6 CD] (1999-2008) APE

:: Детали раздачи
Раздача является мультитрекерной — учтите, количество раздающих не будет совпадать с количеством участников на сайте (скачивание на клиентской стороне зависит от настроек µTorrent клиент программы, настройки -> Включить DHT, Обмен пирами и Поиск лок-х пиров).
Если висит надпись, пиры по нулям - не бойтесь, возможность скачать повторно раздачу - есть. Попробуйте, в случае отказа - прокоментируйте или нажмите на "Позвать скачавших".
Данная раздача является свободной — учитывается только количество отданного, количество скачанного не фиксируется.

Наперегонки со смертью / Dead Man Running (2009 / BDRip 1080p) Золотой торрент

Скачать Скачать .torrent файл
Смотреть / Слушать онлайн просмотр
Magnet-ссылка
Теги / Метки crime, 2009
Описание
Оригинальное название : Dead Man Running
Название : Наперегонки со смертью

Trailer

Год выхода : 2009
Страна : Next Generation TV Film, P
Жанр : Crime
Режиссер : Алекс Де Ракофф
Автор сценариев : Алекс Де Ракофф
В ролях : Дэнни Дайер, Фифти Сент, Тэмер Хассан, Монит Мазур, Бренда Блетин, Джо Иган, Блейк Ритсон, Бронсон Уэбб, Филип Дэвис, Эсме Бьянко, Скот Уильямс, Роб Стоун, Джефф Стюарт, Руперт Дегас, Тревор Байфилд, Джоди Макаллистер, Эндрю Харрис, Гленн Доэрти, Адам Сэйнт, Лоурен Ридинг, Эми Лоусон, Андреа Ньюлэнд
Продолжительность : 01:31:34
Язык : Русский
Перевод : Любительский (двухголосый)

О фильме :
Действие происходит в Лондоне. Главный герой - бывший мошенник, пытающийся в корне изменить свою жизнь. Ему дают 24 часа на поиски 100 000 фунтов в уплату долга ростовщику – если он их не найдет, то его убьют. Он уезжает в Манчестер, место, где процветает наркобизнес.


Media Info
General
Complete name: D:Dowanloadsde sters tOOTT TMDNaperegonki.so.smertju.2009.x264.BDRip(1080p).mkv
Format : Matroska
File size: 9.00 GiB
Duration : 1h 31mn
Overall bit rate : 14.1 Mbps
Movie name : --SCHUMAHER--
Encoded date : UTC 2010-06-01 10:34:44
Writing application: mkvmerge v2.1.0 ('Another Place To Fall') built on Aug 19 2007 13:40:07
Writing library: libebml v0.7.7 + libmatroska v0.8.1


Video
ID : 1
Format : AVC
Format/Info: Advanced Video Codec
Format profile : High@L4.1
Format settings, CABAC : Yes
Format settings, ReFrames: 5 frames
Muxing mode: Container profile=Unknown@4.1
Codec ID : V_MPEG4/ISO/AVC
Duration : 1h 31mn
Bit rate : 12.1 Mbps
Width: 1 920 pixels
Height : 818 pixels
Display aspect ratio : 2.35:1
Frame rate : 23.976 fps
Color space: YUV
Chroma subsampling : 4:2:0
Bit depth: 8 bits
Scan type: Progressive
Bits/(Pixel*Frame) : 0.321
Stream size: 7.57 GiB (84%)
Writing library: x264 core 88 r1471 1144615
Encoding settings: cabac=1 / ref=5 / deblock=1:-3:-3 / analyse=0x3:0x113 / me=umh / subme=9 / psy=1 / psy_rd=1.05:0.10 / mixed_ref=1 / me_range=32 / chroma_me=1 / trellis=2 / 8x8dct=1 / cqm=2 / deadzone=21,11 / fast_pskip=0 / chroma_qp_offset=-2 / threads=12 / sliced_threads=0 / nr=0 / decimate=1 / mbaff=0 / constrained_intra=0 / bframes=3 / b_pyramid=2 / b_adapt=2 / b_bias=0 / direct=3 / wpredb=1 / wpredp=2 / keyint=250 / keyint_min=25 / scenecut=40 / intra_refresh=0 / rc_lookahead=50 / rc=2pass / mbtree=1 / bitrate=12102 / ratetol=2.0 / qcomp=0.70 / qpmin=10 / qpmax=51 / qpstep=4 / cplxblur=20.0 / qblur=0.5 / vbv_maxrate=50000 / vbv_bufsize=50000 / ip_ratio=1.40 / aq=1:1.00
Language : English


Audio #1
ID : 2
Format : AC-3
Format/Info: Audio Coding 3
Mode extension : CM (complete main)
Codec ID : A_AC3
Duration : 1h 31mn
Bit rate mode: Constant
Bit rate : 448 Kbps
Channel(s) : 6 channels
Channel positions: Front: L C R, Side: L R, LFE
Sampling rate: 48.0 KHz
Video delay: 10ms
Stream size: 293 MiB (3%)
Language : Russian


Audio #2
ID : 3
Format : DTS
Format/Info: Digital Theater Systems
Codec ID : A_DTS
Duration : 1h 31mn
Bit rate mode: Constant
Bit rate : 1 510 Kbps
Channel(s) : 6 channels
Channel positions: Front: L C R, Side: L R, LFE
Sampling rate: 48.0 KHz
Bit depth: 24 bits
Stream size: 989 MiB (11%)
Language : English


Screens

Файл
Качество HDTV : BDRip 1080p
Видео : MPEG-4 AVC, 12.1 Мбит/с, 1920x818, 23.976 кадр/с
Звук : Русский (AC3, 6 ch, 448 Кбит/с), английский (DTS, 6 ch, 1536 Кбит/с)
Оповестить о раздаче Включить оповещение на почту ( о новом торрент-файле ), когда появится раздача с похожим названием: Наперегонки со смертью, Dead Man Running

E-Mail адрес:
Внимание: Если вы не авторизованы, то для вас будет создана временная учетная запись (доступ к аккаунту будет прикреплен в письме).
Похожие файлы
Загрузка / Обновление
Категория Фильмы / HDTV / HD / Blu-Ray RSS лента
Добавлен (6 лет, 8 месяцев назад)
Просмотров 54 раз (a)
Взят 5 раз (a)
Файлы 1, 9.00 GB (9 666 591 854 байт)
Оценка
IMDB: 6.0, 3,107 голоса (ов)
Раздал ViKa  (Искать торренты)
Участники
Скачивают (качают): 0 (1), Завершено: 0 (0)
Просматривают

« Frank Sinatra, Dean Martin, Sammy Davis Jr. - Christmas With The Rat Pack [2002 / MP3 / 320] [Jazz] -†- ¿? -†- Халк / Hulk [R1] [DVD-9] [Киномания] [2003] [Action / Sci-Fi / Thriller] »

:: Список Комментариев
Нет комментариев.

 Нет комментариев

Счетчики
Рейтинг@Mail.ru


Поделитесь в социальных сетях


Быстрый Поиск





Спасибо Вам
Мы благодарны этим людям в поддержке сайта:
Нет данных для показа
Попади и ты в этот блок, поставь оценку 5 и получи 300 MB к отдаче:
Войти на сайт сейчас.

Правообладателям
По всем вопросам сотрудничества, удаления авторских файлов "пачкой", просьба отписаться по адреcу:
abuse@muz-tracker.net

Наши группы в VK, OK