Самые активные релизы за неделю
Музыка / Мультимедиа Сериалы Фильмы / AVI
Sexy Beach Jazz: The Very Best of Cafe Chill and Summer Relaxing Smooth Jazz Lounge (2016) [MP3|320 Kbps]
  •  Sexy Beach Jazz: The Very Best of Cafe Chill and Summer Relaxing Smooth Jazz Lounge (2016) [MP3|320 Kbps]
  • Aston Grey Project - The Sensual Side (2016) [MP3|320 Kbps]
  •  Dance Paradise: December Party (2016) [MP3|320 Kbps]
  •  Chill In The Summer: Chillout Collection (2016) [MP3|320 Kbps]
  •  Sensitive Deep House (2016) [MP3|320 Kbps]
  •  Songs Dreams: A Place Of Romance (2016) [MP3|251-320 Kbps]
  • Хитовый драйв. Давай устроим Party ( Pop / 2017 )
  • Aston Grey Project - Discography / Jazz
  • John Kirby - The Biggest Little Band In The Land (1938-1941) 1994, Jazz Portraits[APE|Lossless|tracks + .cue]
  • Armin van Buuren - A State Of Trance 800 (Part.3) ( Trance / 2017 )
  •  Sensual Christmas Chill (2016) [MP3|320 Kbps]
  • Def Leppard - Limited Edition CD Singles Collector's Box (1993) 4CD [FLAC|Lossless|image + .cue]

:: Детали раздачи
Раздача является мультитрекерной — учтите, количество раздающих не будет совпадать с количеством участников на сайте (скачивание на клиентской стороне зависит от настроек µTorrent клиент программы, настройки -> Включить DHT, Обмен пирами и Поиск лок-х пиров).
Если висит надпись, пиры по нулям - не бойтесь, возможность скачать повторно раздачу - есть. Попробуйте, в случае отказа - прокоментируйте или нажмите на "Позвать скачавших".
Данная раздача является свободной — учитывается только количество отданного, количество скачанного не фиксируется.

Игра слов: Переводчица олигарха (Елена Хазанова) Золотой торрент

Скачать Скачать .torrent файл
Смотреть / Слушать онлайн просмотр
Magnet-ссылка
Теги / Метки триллер, драма, 2006
Описание
Перевод: Не требуется
Субтитры: отсутствуют
Формат: BDRip, MKV, H.264, AC3/LPCM/DTS-HD MA
Страна: Россия, Швейцария
Режиссер: Елена Хазанова

Жанр: триллер, драма
Продолжительность: 01:34:39
Год выпуска: 2006

В ролях: Юлия Батинова, Бруно Тодескини, Александр Балуев, Сергей Гармаш, Нина Русланова, Елена Сафонова, Александр Адабашьян, Всеволод Шиловский


Описание: Главная героиня, русская девушка Ирина, живет в Женеве, куда она эмигрировала в семилетнем возрасте вместе со своей матерью Мариной. Старинный приятель Марины предлагает Ире подработать переводчицей у находящегося в тюрьме Ивана Ташкова. По версии швейцарских властей, Ташков — криминальный авторитет, но он себя таковым не считает…

Рейтинг на КиноПоиске: 4.821
Рейтинг на IMDB:
6.0/10

Видео: 1280x704p (16:9), 23.976 fps, AVC MPEG4 (x264), www.tfile.ru

Дата кодирования : UTC 2012-03-29 09:24:26
Программа кодирования : mkvmerge v5.1.0 ('And so it goes') built on Nov 28 2011 23:58:28
Библиотека кодирования : libebml v1.2.3 + libmatroska v1.3.0

Видео
Идентификатор : 1
Формат : AVC
Формат/Информация : Advanced Video Codec
Профиль формата : High@L4.1
Параметр CABAC формата : Да
Параметр ReFrames формата : 9 кадров
Идентификатор кодека : V_MPEG4/ISO/AVC
Продолжительность : 1 ч. 34 м.
Битрейт : 4330 Кбит/сек
Ширина : 1280 пикселей
Высота : 704 пикселя
Соотношение сторон : 16:9
Частота кадров : 23,976 кадра/сек
Цветовое пространство : YUV
Субдискретизация насыщенности : 4:2:0
Битовая глубина : 8 бит
Тип развёртки : Прогрессивная
Бит/(Пиксели*Кадры) : 0.200
Размер потока : 2,80 Гбайт (89%)
Библиотека кодирования : x264 core 122 r2184 5c85e0a
Настройки программы : cabac=1 / ref=9 / deblock=1:0:0 / analyse=0x3:0x113 / me=umh / subme=9 / psy=1 / psy_rd=1.00:0.15 / mixed_ref=1 / me_range=32 / chroma_me=1 / trellis=2 / 8x8dct=1 / cqm=0 / deadzone=21,11 / fast_pskip=0 / chroma_qp_offset=-3 / threads=6 / sliced_threads=0 / nr=0 / decimate=1 / interlaced=0 / bluray_compat=0 / constrained_intra=0 / bframes=8 / b_pyramid=2 / b_adapt=2 / b_bias=0 / direct=3 / weightb=1 / open_gop=0 / weightp=2 / keyint=230 / keyint_min=23 / scenecut=40 / intra_refresh=0 / rc=2pass / mbtree=0 / bitrate=4330 / ratetol=1.0 / qcomp=0.60 / qpmin=0 / qpmax=69 / qpstep=4 / cplxblur=20.0 / qblur=0.5 / ip_ratio=1.40 / pb_ratio=1.30 / aq=1:1.00
Язык : Russian
Default : Да
Forced : Нет

Аудио
Идентификатор : 2
Формат : AC-3
Формат/Информация : Audio Coding 3
Расширение режима : CM (complete main)
Идентификатор кодека : A_AC3
Продолжительность : 1 ч. 34 м.
Вид битрейта : Постоянный
Битрейт : 448 Кбит/сек
Каналы : 6 каналов
Расположение каналов : Front: L C R, Side: L R, LFE
Частота : 48,0 КГц
Битовая глубина : 16 бит
Метод сжатия : С потерями
Размер потока : 303 Мбайт (9%)
Default : Да
Forced : Нет


[/spoiler]
Показать скриншоты
Похожие файлы
Загрузка / Обновление
Категория Фильмы / HDTV / HD / Blu-Ray RSS лента
Добавлен (3 года, 5 месяцев назад)
Просмотров 91 раз (a)
Взят 0 раз (a)
Файлы 3, 7.68 GB (8 245 549 375 байт)
Оценка
IMDB: 6.2, 77 голоса (ов)
Раздал ViKa  (Искать торренты)
Участники
Скачивают (качают): 0 (1), Завершено: 0 (0)
Просматривают

« Улыбка Бога, или Чисто одесская история (Владимир Алеников) -†- ¿? -†- Кодекс молчания (Чак Норрис) / Code of Silence (Эндрю Дэвис) »

:: Список Комментариев
Нет комментариев.

 Нет комментариев

Счетчики
Рейтинг@Mail.ru


Поделитесь в социальных сетях


Быстрый Поиск





Спасибо Вам
Мы благодарны этим людям в поддержке сайта:
ilmarr
Попади и ты в этот блок, поставь оценку 5 и получи 300 MB к отдаче:
Войти на сайт сейчас.

Правообладателям
По всем вопросам сотрудничества, удаления авторских файлов "пачкой", просьба отписаться по адреcу:
abuse@muz-tracker.net

Наши группы в VK, OK