Самые активные релизы за неделю
Музыка / Мультимедиа Картинки / Фото Сериалы Фильмы / AVI / MKV / MP4 Фильмы / HD / Full HD / Blu-Ray / 2K / 4K
Дискотека СССР №1. Хиты 70х-90х (3) ( Pop / 2017 )
  • Дискотека СССР №1. Хиты 70х-90х (3) ( Pop / 2017 )
  • Дискотека СССР №1. Хиты 70х-90х (4) ( Pop / 2017 )
  • ENIGMATIC - Best Hits (8CD Box Set) ( Electronic / 2017 )
  • VA - I Love Music! - Trap Edition Vol. 39 [2017 / MP3 / 320] [Electronic]
  • Максим Дунаевский - Лучшие песни ( Эстрада / 1996 )
  • VA - Лучшие Зимние Хиты Года 7 (2017) MP3
  • Самый Реальный Бит В Твоё Авто (Vol.2) ( Club / 2017 )
  • Вас поздравляют звёзды ( Эстрада / 2008 )
  • Retro Party 70-80' ( Pop / 2017 )
  • Scotch - Italo Disco Band ( Disco / 2017 )
  • VA - Boom Hits Vol.759   [2017 / MP3 / 320] [Dance]
  • VA - Boom Hits Vol.757 - 2017 [2017 / MP3 / 320] [Dance]

:: Детали раздачи
Раздача является мультитрекерной — учтите, количество раздающих не будет совпадать с количеством участников на сайте (скачивание на клиентской стороне зависит от настроек µTorrent клиент программы, настройки -> Включить DHT, Обмен пирами и Поиск лок-х пиров).
Если висит надпись, пиры по нулям - не бойтесь, возможность скачать повторно раздачу - есть. Попробуйте, в случае отказа - прокоментируйте или нажмите на "Позвать скачавших".
Данная раздача является свободной — учитывается только количество отданного, количество скачанного не фиксируется.

Вячеслав Малежик - Дискография Золотой торрент

Скачать Скачать .torrent файл (основная ссылка для скачивания файла)
Смотреть / Слушать онлайн просмотр (ссылка для просмотра файла через плагин 'Torrent Stream')
Magnet-ссылка (альтернативная ссылка для скачивания файла)
Теги / Метки rock, blues rock, pop rock, soft rock, авторская песня, 1984
Описание
Вячеслав Малежик - Дискография
Формат: FLAC, (image + .cue), lossless
Год выпуска: 1984 - 2013
Страна: Россия
Жанр: Rock , Blues Rock , Pop Rock , Soft Rock , Авторская Песня
Продолжительность: 42:13:54
Описание:
1984 - Кафе «Саквояж» (Первый магнитоальбом) (tracks) 00:45:19

1987 - Кафе «Саквояж» (LP) (tracks) 00:40:17

1988 - Верблюд (LP) (tracks) 00:36:34

1991 - Стоп Кадр (LP) 00:38:26

1993 - Туман в декабре 01:07:17

1994 - Мадам 01:04:08

1995 - Любимые песни нашей компании 00:50:53

1995 - Любимые песни нашей компании (Single) 00:09:05

1995 - Ночь, ты и я 00:57:06

1995 - Право на риск 00:57:03

1996 - Двести лет 01:16:54

1997 - В новом свете 00:48:31

1997 - Коллекция лучших песен 01:00:37

1998 - Песни под гитару 00:55:53

2000 - Квартал 32-33 00:41:28

2001 - Мозаика 01:12:37

2001 - Серия «Имена на все времена» 01:13:38

2002 - Антология Ненавязчивых Наблюдений Артиста 00:49:55

2002 - Лучшее... 01:11:57

2003 - Вечерняя коллекция 01:05:07

2003 - Серия «Grand Collection» 01:14:21

2003 - Яблоки падают 01:07:33

2004 - Варшавский вечер 00:59:14

2004 - Домашняя работа 00:44:23

2004 - Иван нам ба ван (Иван Малежик) 00:45:17

2004 - Серия «Любовное Настроение» 01:05:45

2005 - Вальс при свечах 00:54:38

2005 - Я заблудился в тебе 00:58:10

2007 - Инструментальная музыка «На память» 00:58:51

2007 - Кафе «Саквояж» «Цифровая Реставрация» 00:37:27

2007 - Мосты 00:48:14

2007 - Музей воспоминаний 00:47:39

2007 - На Одном Дыхании 00:50:16

2008 - Здравствуй 01:06:46

2008 - Здравствуй (Limited Edition)* 01:06:46

2009 - Французский роман (Подарочное Издание) 00:49:41

2010 - Музыкальный автомат 01:06:32

2010 - Чудо-Птица 00:54:16

2011 - Вечер встречи - Часть 1 01:13:05

2011 - Вечер встречи - Часть 2 01:05:28

2011 - Серия «Grand Collection» 01:18:17

2012 - Вечер встречи - Часть 3 01:19:47

2012 - Жить, чтобы любить 00:59:26

2013 - Попутчица (Песни на стихи Юрия Ремесника) 01:19:08


Доп. информация: Дискография представлена группой : http://twinpix.nu/uploads/full/216515.gif

http://i30.fastpic.ru/big/2012/0206/33/a7dfb12659542e906ead532f559cb133.gif

История





[b]Отчёты
1984 - Кафе «Саквояж» (Первый магнитоальбом) (AUDIOCHECKER)

1988 - Верблюд (LP) (AUDIOCHECKER)

1991 - Стоп Кадр (LP) (AUDIOCHECKER)

1993 - Туман в декабре

1994 - Мадам

1995 - Любимые песни нашей компании

1995 - Любимые песни нашей компании (Single)

1995 - Ночь, ты и я

1995 - Право на риск

1996 - Двести лет

1997 - В новом свете

1997 - Коллекция лучших песен

1998 - Песни под гитару

2000 - Квартал 32-33

2001 - Мозаика

[spoiler=2001 - Серия «Имена на все времена»]

Exact Audio Copy V1.0 beta 1 from 15. November 2010

EAC extraction logfile from 11. December 2010, 16:57

Вячеслав Малежик / Имена на все времена

Used drive : PIONEER DVD-RW DVR-212 Adapter: 8 ID: 0

Read mode : Secure
Utilize accurate stream : Yes
Defeat audio cache : Yes
Make use of C2 pointers : No

Read offset correction : 48
Overread into Lead-In and Lead-Out : No
Fill up missing offset samples with silence : Yes
Delete leading and trailing silent blocks : No
Null samples used in CRC calculations : Yes
Used interface : Installed external ASPI interface

Used output format : Internal WAV Routines
Sample format : 44.100 Hz; 16 Bit; Stereo

TOC of the extracted CD

Track | Start | Length | Start sector | End sector
---------------------------------------------------------
1 | 0:00.00 | 3:31.19 | 0 | 15843
2 | 3:31.19 | 3:14.08 | 15844 | 30401
3 | 6:45.27 | 5:03.61 | 30402 | 53187
4 | 11:49.13 | 3:48.69 | 53188 | 70356
5 | 15:38.07 | 4:09.07 | 70357 | 89038
6 | 19:47.14 | 4:01.25 | 89039 | 107138
7 | 23:48.39 | 4:04.25 | 107139 | 125463
8 | 27:52.64 | 4:46.34 | 125464 | 146947
9 | 32:39.23 | 4:24.17 | 146948 | 166764
10 | 37:03.40 | 3:57.31 | 166765 | 184570
11 | 41:00.71 | 2:52.52 | 184571 | 197522
12 | 43:53.48 | 3:46.24 | 197523 | 214496
13 | 47:39.72 | 4:48.63 | 214497 | 236159
14 | 52:28.60 | 3:47.59 | 236160 | 253243
15 | 56:16.44 | 3:04.63 | 253244 | 267106
16 | 59:21.32 | 2:40.42 | 267107 | 279148
17 | 62:01.74 | 4:26.52 | 279149 | 299150
18 | 66:28.51 | 3:01.70 | 299151 | 312795
19 | 69:30.46 | 4:06.30 | 312796 | 331275

Range status and errors

Selected range

Filename J:\MP3\Вячеслав Малежик (FLAC)\2001 Имена на все времена\Вячеслав Малежик - Имена на все времена.wav

Peak level 98.7 %
Extraction speed 0.4 X
Range quality 100.0 %
Test CRC 63E8D26F
Copy CRC 63E8D26F
Copy OK

No errors occurred

AccurateRip summary

Track 1 not present in
Track 2 not present in
Track 3 not present in
Track 4 not present in
Track 5 not present in
Track 6 not present in
Track 7 not present in
Track 8 not present in
Track 9 not present in
Track 10 not present in
Track 11 not present in
Track 12 not present in
Track 13 not present in
Track 14 not present in
Track 15 not present in
Track 16 not present in
Track 17 not present in
Track 18
Похожие файлы
Загрузка / Обновление
Категория Музыка / Мультимедиа RSS лента
Добавлен (3 года, 10 месяцев назад)
Просмотров 561 раз (a)
Взят 41 раз (a)
Файлы 566, 20.50 GB (22 007 483 283 байт)
Раздал ViKa  (Искать торренты)
Участники
Скачивают (качают): 0 (1), Завершено: 0 (0)
Просматривают

« Ефросинья. Продолжение (126 серия из 140) (Максим Мокрушев, Владимир Дощук) -†- ¿? -†- Дольфи-волчонок / Dolfje Weerwolfje (Йорам Люрсен) [2011, комедия, семейный, DVDRip] VO »

:: Список Комментариев
Нет комментариев.

 Нет комментариев

Поблагодарите нас, взамен, мы будем заливать еще больше раздач!


Счетчики
Рейтинг@Mail.ru Яндекс.Метрика


Поделитесь в социальных сетях


Быстрый Поиск





Спасибо Вам
Мы благодарны этим людям в поддержке сайта:
oiproger
Попади и ты в этот блок, поставь оценку 5 и получи 300 MB к отдаче:
Войти на сайт сейчас.

Правообладателям
По всем вопросам сотрудничества, удаления авторских файлов "пачкой", просьба отписаться по адреcу:
abuse@muz-tracker.net

Наши группы в VK, OK