Самые активные релизы за неделю
Музыка / Мультимедиа Картинки / Фото Сериалы Фильмы / AVI / MKV / MP4 Фильмы / HD / Full HD / Blu-Ray / 2K / 4K
Hardsyle Music For Sports Games ( Club / 2017 )
  • Hardsyle Music For Sports Games ( Club / 2017 )
  • Woody Herman - Verve Jazz Masters 54 (1996) MP3
  • Виктор Цой - 55 лет: лучшие песни и хиты ( Рок / 2017 )
  • Леонид Утёсов - Избранные песни (1930-1970) FLAC от DON Music
  • Magic Island - Music For Balearic People (Vol.8, Mixed By Roger Shah) (2CD) ( Trance / 2017 )
  • Too Late, Too Late (13 CD) / Blues
  • Monstercat Uncaged (Vol.1) ( Dubstep / 2017 )
  • Michael Jackson - 14 Songs From 14 Studio Albums ( Pop / 2017 )
  • NME Hardstyle: Energy Hit Music Only ( Club / 2017 )
  • VA - Русские Новинки Vol.22 from AGR (2011) MP3
  • DJ Farta - Пацанская сборка в тачку Vol.26 (2017) MP3
  • неАнгелы - Роман (2013) MP3 + Бонус


Популярные персоны кино из торрент-раздачи

:: Детали раздачи
Раздача является мультитрекерной — учтите, количество раздающих не будет совпадать с количеством участников на сайте (скачивание на клиентской стороне зависит от настроек µTorrent клиент программы, настройки -> Включить DHT, Обмен пирами и Поиск лок-х пиров).
Если висит надпись, пиры по нулям - не бойтесь, возможность скачать повторно раздачу - есть. Попробуйте, в случае отказа - прокоментируйте или нажмите на "Позвать скачавших".
Данная раздача является свободной — учитывается только количество отданного, количество скачанного не фиксируется.

Мисс Конгениальность: Дилогия / Miss Congeniality: Dilogy (2000-2005) BDRip 1080p Золотой торрент

Скачать Скачать .torrent файл (основная ссылка для скачивания файла)
Смотреть / Слушать онлайн просмотр (ссылка для просмотра файла через плагин 'Torrent Stream')
Magnet-ссылка (альтернативная ссылка для скачивания файла)
Теги / Метки боевик, комедия, криминал, 2000
Описание
Мисс Конгениальность: Дилогия / Miss Congeniality: Dilogy (2000-2005) BDRip 1080p
Жанр: Боевик, комедия, криминал
Год выпуска: 2000 / 2005

Продолжительность: 01:50:15 / 01:55:21

Режиссёр: Дональд Питри, Джон Пасквин

Мисс Конгениальность / Miss Congeniality (2000) BDRip 1080p

x264 [info]: frame I:1267 Avg QP:18.23 size:149742

x264 [info]: frame P:49927 Avg QP:20.93 size: 74352

x264 [info]: frame B:107405 Avg QP:22.87 size: 33204


General

Unique ID : 231175783997786964983117142030576894223 (0xADEAD623ACBBD5ABB3F2268C0E49C10F)

Complete name : E:Miss.Congeniality.Dilogy.2000-2005.x264.BDRip.1080pMiss.Congeniality.2000.x264.BDRip.1080pMiss.Congeniality.2000.x264.BDRip.1080p.mkv

Format : Matroska

Format version : Version 4 / Version 2

File size : 7.94 GiB

Duration : 1h 50mn

Overall bit rate : 10.3 Mbps

Encoded date : UTC 2013-07-22 05:43:39

Writing application : mkvmerge v6.2.0 ('Promised Land') built on Apr 28 2013 12:22:01

Writing library : libebml v1.3.0 + libmatroska v1.4.0


Video

ID : 1

Format : AVC

Format/Info : Advanced Video Codec

Format profile : High@L4.1

Format settings, CABAC : Yes

Format settings, ReFrames : 4 frames

Codec ID : V_MPEG4/ISO/AVC

Duration : 1h 50mn

Bit rate : 9 042 Kbps

Width : 1 920 pixels

Height : 1 080 pixels

Display aspect ratio : 16:9

Frame rate mode : Constant

Frame rate : 23.976 fps

Color space : YUV

Chroma subsampling : 4:2:0

Bit depth : 8 bits

Scan type : Progressive

Bits/(Pixel*Frame) : 0.182

Stream size : 6.80 GiB (86%)

Writing library : x264 core 135 r2345 f0c1c53

Encoding settings : cabac=1 / ref=4 / deblock=1:0:0 / analyse=0x3:0x133 / me=tesa / subme=11 / psy=1 / psy_rd=1.00:0.10 / mixed_ref=1 / me_range=32 / chroma_me=1 / trellis=2 / 8x8dct=1 / cqm=0 / deadzone=21,11 / fast_pskip=0 / chroma_qp_offset=-3 / threads=12 / lookahead_threads=1 / sliced_threads=0 / nr=0 / decimate=0 / interlaced=0 / bluray_compat=0 / constrained_intra=0 / bframes=6 / b_pyramid=2 / b_adapt=2 / b_bias=0 / direct=3 / weightb=1 / open_gop=0 / weightp=2 / keyint=240 / keyint_min=23 / scenecut=40 / intra_refresh=0 / rc=2pass / mbtree=0 / bitrate=9042 / ratetol=1.0 / qcomp=0.60 / qpmin=0 / qpmax=69 / qpstep=4 / cplxblur=20.0 / qblur=0.5 / ip_ratio=1.40 / pb_ratio=1.30 / aq=1:1.00

Language : English

Default : Yes

Forced : No


Audio #1

ID : 2

Format : AC-3

Format/Info : Audio Coding 3

Mode extension : CM (complete main)

Format settings, Endianness : Big

Codec ID : A_AC3

Duration : 1h 50mn

Bit rate mode : Constant

Bit rate : 640 Kbps

Channel(s) : 6 channels

Channel positions : Front: L C R, Side: L R, LFE

Sampling rate : 48.0 KHz

Bit depth : 16 bits

Compression mode : Lossy

Stream size : 505 MiB (6%)

Title : AC3 5.1ch 640 kbps - Дубляж, Blu-ray EUR

Language : Russian

Default : Yes

Forced : No


Audio #2

ID : 3

Format : AC-3

Format/Info : Audio Coding 3

Mode extension : CM (complete main)

Format settings, Endianness : Big

Codec ID : A_AC3

Duration : 1h 50mn

Bit rate mode : Constant

Bit rate : 640 Kbps

Channel(s) : 6 channels

Channel positions : Front: L C R, Side: L R, LFE

Sampling rate : 48.0 KHz

Bit depth : 16 bits

Compression mode : Lossy

Stream size : 505 MiB (6%)

Title : AC3 5.1ch 640 kbps - Английский

Language : English

Default : No

Forced : No


Text #1

ID : 4

Format : UTF-8

Codec ID : S_TEXT/UTF8

Codec ID/Info : UTF-8 Plain Text

Title : Русские

Language : Russian

Default : No

Forced : No


Text #2

ID : 5

Format : UTF-8

Codec ID : S_TEXT/UTF8

Codec ID/Info : UTF-8 Plain Text

Title : Английские [полные]

Language : English

Default : No

Forced : No


Text #3

ID : 6

Format : UTF-8

Codec ID : S_TEXT/UTF8

Codec ID/Info : UTF-8 Plain Text

Title : Английские [SDH]

Language : English

Default : No

Forced : No


Menu

00:00:00.000 : en:

00:05:00.000 : en:

00:10:00.000 : en:

00:15:00.000 : en:

00:20:00.000 : en:

00:25:00.000 : en:

00:30:00.000 : en:

00:35:00.000 : en:

00:40:00.000 : en:

00:45:00.000 : en:

00:50:00.000 : en:

00:55:00.000 : en:

01:00:00.000 : en:

01:05:00.000 : en:

01:10:00.000 : en:

01:15:00.000 : en:

01:20:00.000 : en:

01:25:00.000 : en:

01:30:00.000 : en:

01:35:00.000 : en:

01:40:00.000 : en:

01:45:00.000 : en:

01:50:00.000 : en:

Мисс Конгениальность 2: Прекрасна и опасна / Miss Congeniality 2: Armed Fabulous (2005) BDRip 1080p

x264 [info]: frame I:1651 Avg QP:15.59 size:153323

x264 [info]: frame P:52109 Avg QP:17.90 size: 69404

x264 [info]: frame B:112175 Avg QP:19.44 size: 29729



General

Unique ID : 251623840182881686055724199258275008925 (0xBD4CFD25783D3657920C5BF2F851519D)

Complete name : E:Miss.Congeniality.Dilogy.2000-2005.x264.BDRip.1080pMiss.Congeniality.2.Armed. .Fabulous.2005.x264.BDRip.1080pMiss.Congeniality.2.Armed. .Fabulous.2005.x264.BDRip.1080p.mkv

Format : Matroska

Format version : Version 4 / Version 2

File size : 7.95 GiB

Duration : 1h 55mn

Overall bit rate : 9 867 Kbps

Encoded date : UTC 2013-07-22 06:14:41

Writing application : mkvmerge v6.2.0 ('Promised Land') built on Apr 28 2013 12:22:01

Writing library : libebml v1.3.0 + libmatroska v1.4.0


Video

ID : 1

Format : AVC

Format/Info : Advanced Video Codec

Format profile : High@L4.1

Format settings, CABAC : Yes

Format settings, ReFrames : 5 frames

Codec ID : V_MPEG4/ISO/AVC

Duration : 1h 55mn

Bit rate : 8 332 Kbps

Width : 1 920 pixels

Height : 798 pixels

Display aspect ratio : 2.40:1

Frame rate mode : Constant

Frame rate : 23.976 fps

Color space : YUV

Chroma subsampling : 4:2:0

Bit depth : 8 bits

Scan type : Progressive

Bits/(Pixel*Frame) : 0.227

Stream size : 6.55 GiB (82%)

Writing library : x264 core 135 r2345 f0c1c53

Encoding settings : cabac=1 / ref=5 / deblock=1:-3:-3 / analyse=0x3:0x133 / me=tesa / subme=11 / psy=1 / psy_rd=1.00:0.10 / mixed_ref=1 / me_range=32 / chroma_me=1 / trellis=2 / 8x8dct=1 / cqm=0 / deadzone=21,11 / fast_pskip=0 / chroma_qp_offset=-3 / threads=12 / lookahead_threads=1 / sliced_threads=0 / nr=0 / decimate=0 / interlaced=0 / bluray_compat=0 / constrained_intra=0 / bframes=3 / b_pyramid=2 / b_adapt=2 / b_bias=0 / direct=3 / weightb=1 / open_gop=0 / weightp=2 / keyint=240 / keyint_min=23 / scenecut=40 / intra_refresh=0 / rc=2pass / mbtree=0 / bitrate=8332 / ratetol=1.0 / qcomp=0.60 / qpmin=0 / qpmax=69 / qpstep=4 / cplxblur=20.0 / qblur=0.5 / ip_ratio=1.40 / pb_ratio=1.30 / aq=1:1.00

Language : English

Default : Yes

Forced : No


Audio #1

ID : 2

Format : AC-3

Format/Info : Audio Coding 3

Mode extension : CM (complete main)

Format settings, Endianness : Big

Codec ID : A_AC3

Duration : 1h 55mn

Bit rate mode : Constant

Bit rate : 448 Kbps

Channel(s) : 6 channels

Channel positions : Front: L C R, Side: L R, LFE

Sampling rate : 48.0 KHz

Bit depth : 16 bits

Compression mode : Lossy

Stream size : 370 MiB (5%)

Title : AC3 5.1ch 448 kbps - Дубляж

Language : Russian

Default : Yes

Forced : No


Audio #2

ID : 3

Format : AC-3

Format/Info : Audio Coding 3

Mode extension : CM (complete main)

Format settings, Endianness : Big

Codec ID : A_AC3

Duration : 1h 55mn

Bit rate mode : Constant

Bit rate : 448 Kbps

Channel(s) : 6 channels

Channel positions : Front: L C R, Side: L R, LFE

Sampling rate : 48.0 KHz

Bit depth : 16 bits

Compression mode : Lossy

Stream size : 370 MiB (5%)

Title : AC3 5.1ch 448 kbps - Двухголосый, Тусооn-Studiо

Language : Russian

Default : No

Forced : No


Audio #3

ID : 4

Format : AC-3

Format/Info : Audio Coding 3

Mode extension : CM (complete main)

Format settings, Endianness : Big

Codec ID : A_AC3

Duration : 1h 55mn

Bit rate mode : Constant

Bit rate : 640 Kbps

Channel(s) : 6 channels

Channel positions : Front: L C R, Side: L R, LFE

Sampling rate : 48.0 KHz

Bit depth : 16 bits

Compression mode : Lossy

Stream size : 528 MiB (6%)

Title : AC3 5.1ch 640 kbps - Английский

Language : English

Default : No

Forced : No


Text #1

ID : 5

Format : UTF-8

Codec ID : S_TEXT/UTF8

Codec ID/Info : UTF-8 Plain Text

Title : Русские

Language : Russian

Default : No

Forced : No


Text #2

ID : 6

Format : UTF-8

Codec ID : S_TEXT/UTF8

Codec ID/Info : UTF-8 Plain Text

Title : Английские

Language : English

Default : No

Forced : No


Menu

00:00:00.000 : en:

00:05:00.000 : en:

00:10:00.000 : en:

00:15:00.000 : en:

00:20:00.000 : en:

00:25:00.000 : en:

00:30:00.000 : en:

00:35:00.000 : en:

00:40:00.000 : en:

00:45:00.000 : en:

00:50:00.000 : en:

00:55:00.000 : en:

01:00:00.000 : en:

01:05:00.000 : en:

01:10:00.000 : en:

01:15:00.000 : en:

01:20:00.000 : en:

01:25:00.000 : en:

01:30:00.000 : en:

01:35:00.000 : en:

01:40:00.000 : en:

01:45:00.000 : en:

01:50:00.000 : en:

01:55:00.000 : en:
Оповестить о раздаче Включить оповещение на почту ( о новом торрент-файле ), когда появится раздача с похожим названием: Мисс Конгениальность: Дилогия, Miss Congeniality: Dilogy

E-Mail адрес:
Внимание: Если вы не авторизованы, то для вас будет создана временная учетная запись (доступ к аккаунту будет прикреплен в письме).
Похожие файлы
Загрузка / Обновление
Категория Фильмы / HD / Full HD / Blu-Ray / 2K / 4K RSS лента
Добавлен (3 года, 11 месяцев назад)
Просмотров 231 раз (a)
Взят 2 раз (a)
Файлы 3, 16.39 GB (17 593 713 222 байт)
Раздал ViKa  (Искать торренты)
Участники
Раздают (отдают): 0 (5), Скачивают (качают): 0 (2), Завершено: 0 (3)
Просматривают

« VA - Simply Dubstep July -†- ¿? -†- Вспомнить всё / Total Recall (2012) BDRip 1080p | 4K Remastered »

:: Список Комментариев
Нет комментариев.

 Нет комментариев

Поблагодарите нас, взамен, мы будем заливать еще больше раздач!


Счетчики
Рейтинг@Mail.ru Яндекс.Метрика


Поделитесь в социальных сетях


Быстрый Поиск





Спасибо Вам
Мы благодарны этим людям в поддержке сайта:
MMMNNNBBB
Попади и ты в этот блок, поставь оценку 5 и получи 300 MB к отдаче:
Войти на сайт сейчас.

Правообладателям
По всем вопросам сотрудничества, удаления авторских файлов "пачкой", просьба отписаться по адреcу:
abuse@muz-tracker.net

Наши группы в VK, OK