Загрузка...


Самые активные релизы за неделю
Музыка / Мультимедиа Сериалы Фильмы / AVI / MKV / MP4 Фильмы / HD / Full HD / Blu-Ray / 2K / 4K
Disco Hits (WEB) ( Pop / 2017 )
  • Disco Hits (WEB) ( Pop / 2017 )
  • VA - Boom Hits Vol.745  [2017 / MP3 / 320] [Dance]
  • Popular European Megamix ( Pop / 2017 )
  • Eurovision Song Contest 2017 Kyiv (Karaoke Version) (iTunes) ( Pop / 2017 )
  • Дискотека 2017 (Dance Club) The Best and Newst Hits ( Club / 2017 )
  • Лоя - Лоя ( Поп / 2017 )
  • A Place In Space: Instrumental Spring Version ( Relax / 2017 )
  • German Top 100 Single Charts (21.04.2017) ( Pop / 2017 )
  • VA - I Love Music! - Trap Edition Vol. 38 [2017 / MP3 / 320] [Electronic]
  • Kirsten Siggaard - My Favorite Love Songs (2016) FLAC
  • Song Jing Yu - How to sing? [2017 / MP3 / 320] [Ballad]
  • Стражи Галактики / Guardians Of The Galaxy: Awesome Mix (Vol.1, 2) (iTunes) / Soundtrack


:: Детали раздачи
Раздача является мультитрекерной — учтите, количество раздающих не будет совпадать с количеством участников на сайте (скачивание на клиентской стороне зависит от настроек µTorrent клиент программы, настройки -> Включить DHT, Обмен пирами и Поиск лок-х пиров).
Если висит надпись, пиры по нулям - не бойтесь, возможность скачать повторно раздачу - есть. Попробуйте, в случае отказа - прокоментируйте или нажмите на "Позвать скачавших".

Bonnie Bianco - Дискография (1987-1990) FLAC

Скачать Скачать .torrent файл (основная ссылка для скачивания файла)
Смотреть / Слушать онлайн просмотр (ссылка для просмотра файла через плагин 'Torrent Stream')
Magnet-ссылка (альтернативная ссылка для скачивания файла)
Теги / Метки [Не выбрано, автопоиск неудачен, 2 недели назад]
Описание



Исполнитель: Bonnie Bianco

Жанр: Pop

Страна-производитель диска: West Germany, Japan

Год издания диска: 1987 - 1990

Аудиокодек: FLAC (*.flac)

Тип рипа: image+.cue

Битрейт аудио: lossless

Наличие сканов в содержимом раздачи: да


Источник (релизер): http://i48.fastpic.ru/big/2012/1111/e6/e4f9d138bee2cfd947c8b318c856b1e6.png



1983 - Bonnie Bianco (Rhapsody) - 39:40 • 1987 1st Press • Kangaroo Team Records/TELDEC Schallplatten GmbH/West Germany/8.26495 ZR




Exact Audio Copy V1.0 beta 3 from 29. August 2011

EAC extraction logfile from 26. April 2013, 0:17

Bonnie Bianco / Bonnie Bianco (Rhapsody)

Used drive : PIONEER DVD-RW DVR-112D Adapter: 2 ID: 1

Read mode : SecureUtilize accurate stream : YesDefeat audio cache : YesMake use of C2 pointers : No

Read offset correction : 48Overread into Lead-In and Lead-Out : NoFill up missing offset samples with silence : YesDelete leading and trailing silent blocks : NoNull samples used in CRC calculations : YesUsed interface : Installed external ASPI interface

Used output format : User Defined EncoderSelected bitrate : 1024 kBit/sQuality : HighAdd ID3 tag : NoCommand line compressor : C:Program Files (x86)Exact Audio CopyFlacflac.exeAdditional command line options : -8 -V -T "Date=%year%" -T "Genre=%genre%" -T "COMMENT=ripped by bvstudio®" %source%

TOC of the extracted CD

Track | Start | Length | Start sector | End sector --------------------------------------------------------- 1 | 0:00.32 | 4:36.00 | 32 | 20731 2 | 4:36.32 | 3:59.00 | 20732 | 38656 3 | 8:35.32 | 3:50.35 | 38657 | 55941 4 | 12:25.67 | 4:34.38 | 55942 | 76529 5 | 17:00.30 | 4:14.02 | 76530 | 95581 6 | 21:14.32 | 3:52.70 | 95582 | 113051 7 | 25:07.27 | 3:25.05 | 113052 | 128431 8 | 28:32.32 | 3:33.00 | 128432 | 144406 9 | 32:05.32 | 3:49.03 | 144407 | 161584 10 | 35:54.35 | 3:46.00 | 161585 | 178534

Range status and errors

Selected range

Filename F:Bonnie 'Lory' Bianco1983 - Bonnie Bianco (Rhapsody)Bonnie Bianco - Bonnie Bianco (Rhapsody).wav

Peak level 98.8 % Extraction speed 6.4 X Range quality 99.9 % Test CRC 3086C7E3 Copy CRC 3086C7E3 Copy OK

No errors occurred

AccurateRip summary

Track 1 not present in Track 2 not present in Track 3 not present in Track 4 not present in Track 5 not present in Track 6 not present in Track 7 not present in Track 8 not present in Track 9 not present in Track 10 not present in

None of the tracks are present in the AccurateRip

End of status report

---- CUETools DB Plugin V2.1.5

[CTDB TOCID: eAGP52YKv4cDqi9NFCSSNsFKxBc-] disk not present in Submit result: eAGP52YKv4cDqi9NFCSSNsFKxBc- has been uploaded

==== Log checksum 2EB23C5D12F02A732668915EE34159BDB69739F5A82EBB985C319EAA8CC6C101 ====


•••Dynamic Range Meter•••

1985 - Un' Americana A Roma - 40:07 • 1987 1st Press • Kangaroo Team Records/TELDEC Schallplatten GmbH/West Germany/8.26209 ZR




Exact Audio Copy V1.0 beta 3 from 29. August 2011

EAC extraction logfile from 28. April 2013, 0:06

Bonnie Bianco / Un' Americana A Roma

Used drive : PIONEER DVD-RW DVR-112D Adapter: 2 ID: 1

Read mode : SecureUtilize accurate stream : YesDefeat audio cache : YesMake use of C2 pointers : No

Read offset correction : 48Overread into Lead-In and Lead-Out : NoFill up missing offset samples with silence : YesDelete leading and trailing silent blocks : NoNull samples used in CRC calculations : YesUsed interface : Installed external ASPI interface

Used output format : User Defined EncoderSelected bitrate : 1024 kBit/sQuality : HighAdd ID3 tag : NoCommand line compressor : C:Program Files (x86)Exact Audio CopyFlacflac.exeAdditional command line options : -8 -V -T "Date=%year%" -T "Genre=%genre%" -T "COMMENT=ripped by bvstudio®" %source%

TOC of the extracted CD

Track | Start | Length | Start sector | End sector --------------------------------------------------------- 1 | 0:00.00 | 4:12.02 | 0 | 18901 2 | 4:12.02 | 3:05.15 | 18902 | 32791 3 | 7:17.17 | 3:49.23 | 32792 | 49989 4 | 11:06.40 | 4:19.62 | 49990 | 69476 5 | 15:26.27 | 4:24.70 | 69477 | 89346 6 | 19:51.22 | 4:43.45 | 89347 | 110616 7 | 24:34.67 | 3:02.53 | 110617 | 124319 8 | 27:37.45 | 4:30.50 | 124320 | 144619 9 | 32:08.20 | 3:57.15 | 144620 | 162409 10 | 36:05.35 | 4:01.57 | 162410 | 180541

Range status and errors

Selected range

Filename F:Bonnie 'Lory' Bianco1985 - Un' Americana A RomaBonnie Bianco - Un' Americana A Roma.wav

Peak level 93.7 % Extraction speed 5.2 X Range quality 99.9 % Test CRC E92A20B5 Copy CRC E92A20B5 Copy OK

No errors occurred

AccurateRip summary

Track 1 not present in Track 2 not present in Track 3 not present in Track 4 not present in Track 5 not present in Track 6 not present in Track 7 not present in Track 8 not present in Track 9 not present in Track 10 not present in

None of the tracks are present in the AccurateRip

End of status report

---- CUETools DB Plugin V2.1.5

[CTDB TOCID: QIxoA_OU22lKMI851CqYQXjKTBw-] foundSubmit result: already submittedTrack | CTDB Status 1 | (2/2) Accurately ripped 2 | (2/2) Accurately ripped 3 | (2/2) Accurately ripped 4 | (2/2) Accurately ripped 5 | (2/2) Accurately ripped 6 | (2/2) Accurately ripped 7 | (2/2) Accurately ripped 8 | (2/2) Accurately ripped 9 | (2/2) Accurately ripped 10 | (2/2) Accurately ripped

==== Log checksum 08DB7F876DDCBF60F43C9D175422D816388116DCDC097D955B87964A7BE8EB10 ====


•••Dynamic Range Meter•••

1987 - Cinderella '87 - 36:27 • 1987 1st Press • Kangaroo Team Records/TELDEC Schallplatten GmbH/Japan/8.26427 ZP




Exact Audio Copy V1.0 beta 3 from 29. August 2011

EAC extraction logfile from 25. April 2013, 23:47

Bonnie Bianco / Cinderella '87

Used drive : Optiarc BD RW BD-5300S Adapter: 3 ID: 0

Read mode : SecureUtilize accurate stream : YesDefeat audio cache : YesMake use of C2 pointers : No

Read offset correction : 6Overread into Lead-In and Lead-Out : NoFill up missing offset samples with silence : YesDelete leading and trailing silent blocks : NoNull samples used in CRC calculations : YesUsed interface : Installed external ASPI interface

Used output format : User Defined EncoderSelected bitrate : 1024 kBit/sQuality : HighAdd ID3 tag : NoCommand line compressor : C:Program Files (x86)Exact Audio CopyFlacflac.exeAdditional command line options : -8 -V -T "Date=%year%" -T "Genre=%genre%" -T "COMMENT=ripped by bvstudio®" %source%

TOC of the extracted CD

Track | Start | Length | Start sector | End sector --------------------------------------------------------- 1 | 0:00.00 | 3:56.25 | 0 | 17724 2 | 3:56.25 | 4:17.32 | 17725 | 37031 3 | 8:13.57 | 2:00.53 | 37032 | 46084 4 | 10:14.35 | 4:00.32 | 46085 | 64116 5 | 14:14.67 | 3:48.30 | 64117 | 81246 6 | 18:03.22 | 3:44.23 | 81247 | 98069 7 | 21:47.45 | 3:35.05 | 98070 | 114199 8 | 25:22.50 | 3:28.05 | 114200 | 129804 9 | 28:50.55 | 3:48.57 | 129805 | 146961 10 | 32:39.37 | 3:47.60 | 146962 | 164046

Range status and errors

Selected range

Filename F:Bonnie 'Lory' Bianco1987 - Cinderella'87Bonnie Bianco - Cinderella '87.wav

Peak level 89.5 % Extraction speed 6.9 X Range quality 100.0 % Test CRC CF6FC6A1 Copy CRC CF6FC6A1 Copy OK

No errors occurred

AccurateRip summary

Track 1 accurately ripped (confidence 4) [1AAF68EE] (AR v1)Track 2 accurately ripped (confidence 5) [3DE3A856] (AR v1)Track 3 accurately ripped (confidence 5) [C1D86EF8] (AR v1)Track 4 accurately ripped (confidence 5) [5924C5F8] (AR v1)Track 5 accurately ripped (confidence 5) [1F3A7E8E] (AR v1)Track 6 accurately ripped (confidence 5) [02F6A4F3] (AR v1)Track 7 accurately ripped (confidence 5) [7447D9F4] (AR v1)Track 8 accurately ripped (confidence 5) [EEC9F6DB] (AR v1)Track 9 accurately ripped (confidence 5) [D6688867] (AR v1)Track 10 accurately ripped (confidence 5) [462B5B5E] (AR v1)

All tracks accurately ripped

End of status report

---- CUETools DB Plugin V2.1.5

[CTDB TOCID: DSoyyrqJAEa4fF1C2AP4fjDyjc0-] foundSubmit result: DSoyyrqJAEa4fF1C2AP4fjDyjc0- has been confirmedTrack | CTDB Status 1 | (1/1) Accurately ripped 2 | (1/1) Accurately ripped 3 | (1/1) Accurately ripped 4 | (1/1) Accurately ripped 5 | (1/1) Accurately ripped 6 | (1/1) Accurately ripped 7 | (1/1) Accurately ripped 8 | (1/1) Accurately ripped 9 | (1/1) Accurately ripped 10 | (1/1) Accurately ripped

==== Log checksum 721E79897F148AAE53FA442D22A9F8E3FECF9FD492BC623BD821B89323F9B32E ====


•••Dynamic Range Meter•••

1987 - Just Me - 40:53 • 1987 1st Press • Metronome Music GmbH/West Germany/831 702-2




Exact Audio Copy V1.0 beta 3 from 29. August 2011

EAC extraction logfile from 25. April 2013, 23:20

Bonnie Bianco / Just Me

Used drive : Optiarc BD RW BD-5300S Adapter: 3 ID: 0

Read mode : SecureUtilize accurate stream : YesDefeat audio cache : YesMake use of C2 pointers : No

Read offset correction : 6Overread into Lead-In and Lead-Out : NoFill up missing offset samples with silence : YesDelete leading and trailing silent blocks : NoNull samples used in CRC calculations : YesUsed interface : Installed external ASPI interface

Used output format : User Defined EncoderSelected bitrate : 1024 kBit/sQuality : HighAdd ID3 tag : NoCommand line compressor : C:Program Files (x86)Exact Audio CopyFlacflac.exeAdditional command line options : -8 -V -T "Date=%year%" -T "Genre=%genre%" -T "COMMENT=ripped by bvstudio®" %source%

TOC of the extracted CD

Track | Start | Length | Start sector | End sector --------------------------------------------------------- 1 | 0:00.32 | 4:56.63 | 32 | 22294 2 | 4:57.20 | 4:47.52 | 22295 | 43871 3 | 9:44.72 | 3:43.30 | 43872 | 60626 4 | 13:28.27 | 3:35.63 | 60627 | 76814 5 | 17:04.15 | 3:38.70 | 76815 | 93234 6 | 20:43.10 | 3:37.32 | 93235 | 109541 7 | 24:20.42 | 3:49.23 | 109542 | 126739 8 | 28:09.65 | 3:50.47 | 126740 | 144036 9 | 32:00.37 | 4:04.40 | 144037 | 162376 10 | 36:05.02 | 4:48.60 | 162377 | 184036

Range status and errors

Selected range

Filename F:Bonnie 'Lory' Bianco1987 - Just MeBonnie Bianco - Just Me.wav

Peak level 78.8 % Extraction speed 6.0 X Range quality 99.9 % Test CRC E6866F73 Copy CRC E6866F73 Copy OK

No errors occurred

AccurateRip summary

Track 1 accurately ripped (confidence 3) [1AAD7B35] (AR v2)Track 2 accurately ripped (confidence 3) [C4B55A33] (AR v2)Track 3 accurately ripped (confidence 3) [939A7203] (AR v2)Track 4 accurately ripped (confidence 3) [BFBBB1B4] (AR v2)Track 5 accurately ripped (confidence 3) [066F7077] (AR v2)Track 6 accurately ripped (confidence 3) [33ED30E3] (AR v2)Track 7 accurately ripped (confidence 3) [8D6AE2C1] (AR v2)Track 8 accurately ripped (confidence 3) [5084AF9B] (AR v2)Track 9 accurately ripped (confidence 3) [AD7F03A6] (AR v2)Track 10 accurately ripped (confidence 3) [9151745D] (AR v2)

All tracks accurately ripped

End of status report

---- CUETools DB Plugin V2.1.5

[CTDB TOCID: nvhCJRJAvcIrsbKv.AUcnoxWUhE-] foundSubmit result: nvhCJRJAvcIrsbKv.AUcnoxWUhE- has been confirmedTrack | CTDB Status 1 | (1/1) Accurately ripped 2 | (1/1) Accurately ripped 3 | (1/1) Accurately ripped 4 | (1/1) Accurately ripped 5 | (1/1) Accurately ripped 6 | (1/1) Accurately ripped 7 | (1/1) Accurately ripped 8 | (1/1) Accurately ripped 9 | (1/1) Accurately ripped 10 | (1/1) Accurately ripped

==== Log checksum F58300ACCE6EB361232B9FBFDE538E02DDB4A68F22A668C6AA3DFE8357623E37 ====


•••Dynamic Range Meter•••

1988 - True Love, Lory - 41:33 • 1988 1st Press • WEA Musik GmbH/TELDEC Record Service GmbH/Germany/243 868-2




Exact Audio Copy V1.0 beta 3 from 29. August 2011

EAC extraction logfile from 25. April 2013, 22:38

Bonnie Bianco / True Love, Lory

Used drive : PIONEER DVD-RW DVR-112D Adapter: 2 ID: 1

Read mode : SecureUtilize accurate stream : YesDefeat audio cache : YesMake use of C2 pointers : No

Read offset correction : 48Overread into Lead-In and Lead-Out : NoFill up missing offset samples with silence : YesDelete leading and trailing silent blocks : NoNull samples used in CRC calculations : YesUsed interface : Installed external ASPI interface

Used output format : User Defined EncoderSelected bitrate : 1024 kBit/sQuality : HighAdd ID3 tag : NoCommand line compressor : C:Program Files (x86)Exact Audio CopyFlacflac.exeAdditional command line options : -8 -V -T "Date=%year%" -T "Genre=%genre%" -T "COMMENT=ripped by bvstudio®" %source%

TOC of the extracted CD

Track | Start | Length | Start sector | End sector --------------------------------------------------------- 1 | 0:00.00 | 4:02.07 | 0 | 18156 2 | 4:02.07 | 3:48.25 | 18157 | 35281 3 | 7:50.32 | 4:52.73 | 35282 | 57254 4 | 12:43.30 | 4:20.55 | 57255 | 76809 5 | 17:04.10 | 4:23.72 | 76810 | 96606 6 | 21:28.07 | 4:24.23 | 96607 | 116429 7 | 25:52.30 | 3:35.42 | 116430 | 132596 8 | 29:27.72 | 4:17.18 | 132597 | 151889 9 | 33:45.15 | 3:42.35 | 151890 | 168574 10 | 37:27.50 | 4:06.00 | 168575 | 187024

Range status and errors

Selected range

Filename F:Bonnie 'Lory' Bianco1988 - True Love, LoryBonnie Bianco - True Love, Lory.wav

Peak level 97.7 % Extraction speed 6.5 X Range quality 99.9 % Test CRC 1AC03EAF Copy CRC 1AC03EAF Copy OK

No errors occurred

AccurateRip summary

Track 1 accurately ripped (confidence 3) [4B8D59CA] (AR v2)Track 2 accurately ripped (confidence 3) [731F2A8E] (AR v2)Track 3 accurately ripped (confidence 3) [821FC46A] (AR v2)Track 4 accurately ripped (confidence 3) [A076D712] (AR v2)Track 5 accurately ripped (confidence 3) [C6BF3012] (AR v2)Track 6 accurately ripped (confidence 3) [B0C12DF6] (AR v2)Track 7 accurately ripped (confidence 3) [530C835A] (AR v2)Track 8 accurately ripped (confidence 3) [20918F6A] (AR v2)Track 9 accurately ripped (confidence 3) [0376313A] (AR v2)Track 10 accurately ripped (confidence 3) [1241D941] (AR v2)

All tracks accurately ripped

End of status report

---- CUETools DB Plugin V2.1.5

[CTDB TOCID: 1lfKN7W7tJutHMmGznXTDKirf5c-] foundSubmit result: 1lfKN7W7tJutHMmGznXTDKirf5c- has been confirmedTrack | CTDB Status 1 | (6/6) Accurately ripped 2 | (6/6) Accurately ripped 3 | (6/6) Accurately ripped 4 | (5/6) Accurately ripped 5 | (5/6) Accurately ripped 6 | (6/6) Accurately ripped 7 | (6/6) Accurately ripped 8 | (6/6) Accurately ripped 9 | (6/6) Accurately ripped 10 | (6/6) Accurately ripped

==== Log checksum 3C08C2313BC65510167E195C8FEF5C65C2E04616D5735BBB97F86A3E106186C5 ====


•••Dynamic Range Meter•••

1990 - Lonely Is The Night - 49:40 • 1990 1st Press • WEA Musik GmbH/Germany/9031-72362-2




Exact Audio Copy V1.0 beta 3 from 29. August 2011

EAC extraction logfile from 25. April 2013, 22:02

Lory Bianco / Lonely Is The Night

Used drive : Optiarc BD RW BD-5300S Adapter: 3 ID: 0

Read mode : SecureUtilize accurate stream : YesDefeat audio cache : YesMake use of C2 pointers : No

Read offset correction : 6Overread into Lead-In and Lead-Out : NoFill up missing offset samples with silence : YesDelete leading and trailing silent blocks : NoNull samples used in CRC calculations : YesUsed interface : Installed external ASPI interface

Used output format : User Defined EncoderSelected bitrate : 1024 kBit/sQuality : HighAdd ID3 tag : NoCommand line compressor : C:Program Files (x86)Exact Audio CopyFlacflac.exeAdditional command line options : -8 -V -T "Date=%year%" -T "Genre=%genre%" -T "COMMENT=ripped by bvstudio®" %source%

TOC of the extracted CD

Track | Start | Length | Start sector | End sector --------------------------------------------------------- 1 | 0:00.00 | 4:04.00 | 0 | 18299 2 | 4:04.00 | 3:56.00 | 18300 | 35999 3 | 8:00.00 | 3:48.00 | 36000 | 53099 4 | 11:48.00 | 3:38.25 | 53100 | 69474 5 | 15:26.25 | 4:35.50 | 69475 | 90149 6 | 20:02.00 | 3:48.00 | 90150 | 107249 7 | 23:50.00 | 3:22.25 | 107250 | 122424 8 | 27:12.25 | 4:41.00 | 122425 | 143499 9 | 31:53.25 | 4:04.00 | 143500 | 161799 10 | 35:57.25 | 3:57.00 | 161800 | 179574 11 | 39:54.25 | 4:20.00 | 179575 | 199074 12 | 44:14.25 | 5:25.50 | 199075 | 223499

Range status and errors

Selected range

Filename F:Bonnie 'Lory' Bianco1990 - Lonely Is The NightLory Bianco - Lonely Is The Night.wav

Peak level 97.7 % Extraction speed 6.9 X Range quality 100.0 % Test CRC 7F70DD83 Copy CRC 7F70DD83 Copy OK

No errors occurred

AccurateRip summary

Track 1 accurately ripped (confidence 5) [0F32E3B2] (AR v1)Track 2 accurately ripped (confidence 5) [83C132CD] (AR v1)Track 3 accurately ripped (confidence 5) [D6549F11] (AR v1)Track 4 accurately ripped (confidence 5) [CC64C6FE] (AR v1)Track 5 accurately ripped (confidence 5) [9B4847E7] (AR v1)Track 6 accurately ripped (confidence 5) [773E5048] (AR v1)Track 7 accurately ripped (confidence 5) [3BF3946A] (AR v1)Track 8 accurately ripped (confidence 5) [42986E00] (AR v1)Track 9 accurately ripped (confidence 5) [1F1109A6] (AR v1)Track 10 accurately ripped (confidence 5) [F66D5E6B] (AR v1)Track 11 accurately ripped (confidence 5) [6A019AFA] (AR v1)Track 12 accurately ripped (confidence 5) [451C286B] (AR v1)

All tracks accurately ripped

End of status report

---- CUETools DB Plugin V2.1.4

[CTDB TOCID: JxQgKd3Dts3c_MVH4H65FLndo14-] foundSubmit result: JxQgKd3Dts3c_MVH4H65FLndo14- has been confirmedTrack | CTDB Status 1 | (3/3) Accurately ripped 2 | (3/3) Accurately ripped 3 | (3/3) Accurately ripped 4 | (3/3) Accurately ripped 5 | (3/3) Accurately ripped 6 | (3/3) Accurately ripped 7 | (3/3) Accurately ripped 8 | (3/3) Accurately ripped 9 | (3/3) Accurately ripped 10 | (3/3) Accurately ripped 11 | (3/3) Accurately ripped 12 | (3/3) Accurately ripped

==== Log checksum 25C3CCB290256EAA35E5A4FD70802E3FDC047E637BD794EDB8E7E0A1C074CF53 ====


•••Dynamic Range Meter•••
Скриншоты
Похожие файлы
Загрузка / Обновление
Категория Музыка / Мультимедиа RSS лента
Добавлен (3 года, 10 месяцев назад)
Просмотров 161 раз (a)
Взят 2 раз (a)
Файлы 62, 2.51 GB (2 695 419 048 байт)
Раздал ViKa  (Искать торренты)
Участники
Раздают (отдают): 0 (1), Скачивают (качают): 0 (1), Завершено: 0 (6)
Просматривают

« Бобро Поржаловать / Bienvenue chez les Ch'tis (2008) BDRip 720p -†- ¿? -†- Мастер / The Master (2012) BDRip 1080p | US Transfer »

:: Список Комментариев
Нет комментариев.

 Нет комментариев

Поблагодарите нас, взамен, мы будем заливать еще больше раздач!


Счетчики
Рейтинг@Mail.ru Яндекс.Метрика


Быстрый Поиск





Спасибо Вам
Мы благодарны этим людям в поддержке сайта:
kokorin1970, oiproger
Попади и ты в этот блок, поставь оценку 5 и получи 300 MB к отдаче:
Войти на сайт сейчас.

Правообладателям
По всем вопросам сотрудничества, удаления авторских файлов "пачкой", просьба отписаться по адреcу:
abuse@muz-tracker.net

Наши группы в VK, OK