Загрузка...


Самые активные релизы за неделю
Музыка / Мультимедиа Фильмы / AVI / MKV / MP4 Фильмы / HD / Full HD / Blu-Ray / 2K / 4K
VA - Boom Hits Vol.745 [2017 / MP3 / 320] [Dance]
  • VA - Boom Hits Vol.745  [2017 / MP3 / 320] [Dance]
  • Gorillaz - Humanz [2017 / MP3 / 320] [Electronic]
  • The Disco Swing (Vol.2) ( Nu Jazz / 2017 )
  • Лоя - Лоя ( Поп / 2017 )
  • Дискотека 2017 (Dance Club) The Best and Newst Hits ( Club / 2017 )
  • Popular European Megamix ( Pop / 2017 )
  • German Top 100 Single Charts (21.04.2017) ( Pop / 2017 )
  • Eurovision Song Contest 2017 Kyiv (Karaoke Version) (iTunes) ( Pop / 2017 )
  • VA - I Love Music! - Trap Edition Vol. 38 [2017 / MP3 / 320] [Electronic]
  • A Place In Space: Instrumental Spring Version ( Relax / 2017 )
  • Song Jing Yu - How to sing? [2017 / MP3 / 320] [Ballad]
  • ATB - neXt [2017 / MP3 / 320] [Trance]


:: Детали раздачи
Раздача является мультитрекерной — учтите, количество раздающих не будет совпадать с количеством участников на сайте (скачивание на клиентской стороне зависит от настроек µTorrent клиент программы, настройки -> Включить DHT, Обмен пирами и Поиск лок-х пиров).
Если висит надпись, пиры по нулям - не бойтесь, возможность скачать повторно раздачу - есть. Попробуйте, в случае отказа - прокоментируйте или нажмите на "Позвать скачавших".
Данная раздача является свободной — учитывается только количество отданного, количество скачанного не фиксируется.

Шерлок Холмс: Дилогия / Sherlock Holmes: Dilogy (2009-2011) BDRip 1080p Золотой торрент

Скачать Скачать .torrent файл (основная ссылка для скачивания файла)
Смотреть / Слушать онлайн просмотр (ссылка для просмотра файла через плагин 'Torrent Stream')
Magnet-ссылка (альтернативная ссылка для скачивания файла)
Теги / Метки боевик, триллер, криминал, детектив, приключения, 2009
Описание
Жанр: боевик, триллер, криминал, детектив, приключения
Год выпуска: 2009/2011

Продолжительность: 02:08:24 | 02:08:44

Режиссёр: Гай Ричи


Шерлок Холмс / Sherlock Holmes (2009) BDRip 1080p

Общее

Уникальный идентификатор : 188889273041400695343472116622688020477 (0x8E1AC02EB009EC8A965D43CAC73C67FD)

Полное имя : Шерлок Холмс.2009.BDRip.1080p.Rus.Eng.mkv

Формат : Matroska

Версия формата : Version 2

Размер файла : 7,76 Гбайт

Продолжительность : 2 ч. 8 м.

Общий поток : 8652 Кбит/сек

Название фильма : Шерлок Холмс.2009

Дата кодирования : UTC 2013-05-30 16:19:04

Программа кодирования : mkvmerge v5.8.0 ('No Sleep / Pillow') built on Sep 2 2012 15:37:04

Библиотека кодирования : libebml v1.2.3 + libmatroska v1.3.0


Видео

Идентификатор : 1

Формат : AVC

Формат/Информация : Advanced Video Codec

Профиль формата : High@L4.1

Параметр CABAC формата : Да

Параметр ReFrames формата : 4 кадра

Идентификатор кодека : V_MPEG4/ISO/AVC

Продолжительность : 2 ч. 8 м.

Битрейт : 7755 Кбит/сек

Ширина : 1920 пикселей

Высота : 1080 пикселей

Соотношение сторон : 16:9

Режим частоты кадров : Постоянный

Частота кадров : 23,976 кадра/сек

Цветовое пространство : YUV

Субдискретизация насыщенности : 4:2:0

Битовая глубина : 8 бит

Тип развёртки : Прогрессивная

Бит/(Пиксели*Кадры) : 0.156

Размер потока : 6,80 Гбайт (88%)

Заголовок : Rip by Boriy

Библиотека кодирования : x264 core 133 r2334 a3ac64b

Настройки программы : cabac=1 / ref=4 / deblock=1:-3:-3 / analyse=0x3:0x113 / me=umh / subme=10 / psy=1 / psy_rd=1.00:0.10 / mixed_ref=1 / me_range=32 / chroma_me=1 / trellis=2 / 8x8dct=1 / cqm=0 / deadzone=21,11 / fast_pskip=0 / chroma_qp_offset=-2 / threads=12 / lookahead_threads=1 / sliced_threads=0 / nr=0 / decimate=0 / interlaced=0 / bluray_compat=0 / constrained_intra=0 / bframes=5 / b_pyramid=2 / b_adapt=2 / b_bias=0 / direct=3 / weightb=1 / open_gop=0 / weightp=2 / keyint=240 / keyint_min=23 / scenecut=40 / intra_refresh=0 / rc=2pass / mbtree=0 / bitrate=7755 / ratetol=1.0 / qcomp=0.60 / qpmin=0 / qpmax=69 / qpstep=4 / cplxblur=20.0 / qblur=0.5 / ip_ratio=1.40 / pb_ratio=1.30 / aq=1:0.80

Язык : English

Default : Да

Forced : Нет


Аудио #1

Идентификатор : 2

Формат : AC-3

Формат/Информация : Audio Coding 3

Расширение режима : CM (complete main)

Параметр Endianness формата : Big

Идентификатор кодека : A_AC3

Продолжительность : 2 ч. 8 м.

Вид битрейта : Постоянный

Битрейт : 448 Кбит/сек

Каналы : 6 каналов

Расположение каналов : Front: L C R, Side: L R, LFE

Частота : 48,0 КГц

Битовая глубина : 16 бит

Метод сжатия : С потерями

Размер потока : 411 Мбайт (5%)

Заголовок : Дубляж

Язык : Russian

Default : Да

Forced : Нет


Аудио #2

Идентификатор : 3

Формат : AC-3

Формат/Информация : Audio Coding 3

Расширение режима : CM (complete main)

Параметр Endianness формата : Big

Идентификатор кодека : A_AC3

Продолжительность : 2 ч. 8 м.

Вид битрейта : Постоянный

Битрейт : 448 Кбит/сек

Каналы : 6 каналов

Расположение каналов : Front: L C R, Side: L R, LFE

Частота : 48,0 КГц

Битовая глубина : 16 бит

Метод сжатия : С потерями

Размер потока : 411 Мбайт (5%)

Заголовок : Оригинал

Язык : English

Default : Нет

Forced : Нет


Текст #1

Идентификатор : 4

Формат : UTF-8

Идентификатор кодека : S_TEXT/UTF8

Идентификатор кодека/Информация : UTF-8 Plain Text

Заголовок : Forced

Язык : Russian

Default : Да

Forced : Да


Текст #2

Идентификатор : 5

Формат : UTF-8

Идентификатор кодека : S_TEXT/UTF8

Идентификатор кодека/Информация : UTF-8 Plain Text

Заголовок : Full

Язык : Russian

Default : Нет

Forced : Нет


Текст #3

Идентификатор : 6

Формат : UTF-8

Идентификатор кодека : S_TEXT/UTF8

Идентификатор кодека/Информация : UTF-8 Plain Text

Заголовок : Full

Язык : English

Default : Нет

Forced : Нет


Меню

00:00:00.000 : :Chapter 1

00:06:46.531 : :Chapter 2

00:11:30.231 : :Chapter 3

00:15:41.607 : :Chapter 4

00:19:08.897 : :Chapter 5

00:23:29.074 : :Chapter 6

00:27:49.876 : :Chapter 7

00:32:01.252 : :Chapter 8

00:37:08.434 : :Chapter 9

00:40:50.406 : :Chapter 10

00:44:37.216 : :Chapter 11

00:47:39.690 : :Chapter 12

00:50:52.173 : :Chapter 13

00:55:17.605 : :Chapter 14

00:59:04.457 : :Chapter 15

01:03:04.780 : :Chapter 16

01:06:08.047 : :Chapter 17

01:11:14.102 : :Chapter 18

01:14:39.349 : :Chapter 19

01:17:36.318 : :Chapter 20

01:23:35.093 : :Chapter 21

01:26:06.953 : :Chapter 22

01:30:57.159 : :Chapter 23

01:35:15.376 : :Chapter 24

01:39:45.979 : :Chapter 25

01:44:18.001 : :Chapter 26

01:48:21.953 : :Chapter 27

01:54:02.710 : :Chapter 28

01:56:07.501 : :Chapter 29

02:00:26.177 : :Chapter 30

02:08:24.488 : :Chapter 31
Шерлок Холмс: Игра теней / Sherlock Holmes: A Game of Shadows (2011) BDRip 1080p

Общее

Уникальный идентификатор : 229873973275871466324593388764146774935 (0xACF01DEA528DAC5D83C7B12A3D7D3397)

Полное имя : Шерлок Холмс. Игра теней.2011.BDRip.1080p.Rus.Eng.mkv

Формат : Matroska

Версия формата : Version 2

Размер файла : 7,76 Гбайт

Продолжительность : 2 ч. 8 м.

Общий поток : 8627 Кбит/сек

Название фильма : Шерлок Холмс: Игра теней.2011

Дата кодирования : UTC 2013-05-30 16:36:26

Программа кодирования : mkvmerge v5.8.0 ('No Sleep / Pillow') built on Sep 2 2012 15:37:04

Библиотека кодирования : libebml v1.2.3 + libmatroska v1.3.0


Видео

Идентификатор : 1

Формат : AVC

Формат/Информация : Advanced Video Codec

Профиль формата : High@L4.1

Параметр CABAC формата : Да

Параметр ReFrames формата : 5 кадров

Идентификатор кодека : V_MPEG4/ISO/AVC

Продолжительность : 2 ч. 8 м.

Битрейт : 7733 Кбит/сек

Ширина : 1920 пикселей

Высота : 800 пикселей

Соотношение сторон : 2,40:1

Режим частоты кадров : Постоянный

Частота кадров : 23,976 кадра/сек

Цветовое пространство : YUV

Субдискретизация насыщенности : 4:2:0

Битовая глубина : 8 бит

Тип развёртки : Прогрессивная

Бит/(Пиксели*Кадры) : 0.210

Размер потока : 6,80 Гбайт (88%)

Заголовок : Rip by Boriy

Библиотека кодирования : x264 core 133 r2334 a3ac64b

Настройки программы : cabac=1 / ref=5 / deblock=1:-3:-3 / analyse=0x3:0x113 / me=umh / subme=10 / psy=1 / psy_rd=1.00:0.10 / mixed_ref=1 / me_range=32 / chroma_me=1 / trellis=2 / 8x8dct=1 / cqm=0 / deadzone=21,11 / fast_pskip=0 / chroma_qp_offset=-2 / threads=12 / lookahead_threads=1 / sliced_threads=0 / nr=0 / decimate=0 / interlaced=0 / bluray_compat=0 / constrained_intra=0 / bframes=5 / b_pyramid=2 / b_adapt=2 / b_bias=0 / direct=3 / weightb=1 / open_gop=0 / weightp=2 / keyint=240 / keyint_min=23 / scenecut=40 / intra_refresh=0 / rc=2pass / mbtree=0 / bitrate=7733 / ratetol=1.0 / qcomp=0.60 / qpmin=0 / qpmax=69 / qpstep=4 / cplxblur=20.0 / qblur=0.5 / ip_ratio=1.40 / pb_ratio=1.30 / aq=1:0.80

Язык : English

Default : Да

Forced : Нет


Аудио #1

Идентификатор : 2

Формат : AC-3

Формат/Информация : Audio Coding 3

Расширение режима : CM (complete main)

Параметр Endianness формата : Big

Идентификатор кодека : A_AC3

Продолжительность : 2 ч. 8 м.

Вид битрейта : Постоянный

Битрейт : 448 Кбит/сек

Каналы : 6 каналов

Расположение каналов : Front: L C R, Side: L R, LFE

Частота : 48,0 КГц

Битовая глубина : 16 бит

Метод сжатия : С потерями

Размер потока : 413 Мбайт (5%)

Заголовок : Дубляж

Язык : Russian

Default : Да

Forced : Нет


Аудио #2

Идентификатор : 3

Формат : AC-3

Формат/Информация : Audio Coding 3

Расширение режима : CM (complete main)

Параметр Endianness формата : Big

Идентификатор кодека : A_AC3

Продолжительность : 2 ч. 8 м.

Вид битрейта : Постоянный

Битрейт : 448 Кбит/сек

Каналы : 6 каналов

Расположение каналов : Front: L C R, Side: L R, LFE

Частота : 48,0 КГц

Битовая глубина : 16 бит

Метод сжатия : С потерями

Размер потока : 413 Мбайт (5%)

Заголовок : Оригинал

Язык : English

Default : Нет

Forced : Нет


Текст #1

Идентификатор : 4

Формат : UTF-8

Идентификатор кодека : S_TEXT/UTF8

Идентификатор кодека/Информация : UTF-8 Plain Text

Заголовок : Forced

Язык : Russian

Default : Да

Forced : Да


Текст #2

Идентификатор : 5

Формат : UTF-8

Идентификатор кодека : S_TEXT/UTF8

Идентификатор кодека/Информация : UTF-8 Plain Text

Заголовок : Full

Язык : Russian

Default : Нет

Forced : Нет


Текст #3

Идентификатор : 6

Формат : UTF-8

Идентификатор кодека : S_TEXT/UTF8

Идентификатор кодека/Информация : UTF-8 Plain Text

Заголовок : Full

Язык : English

Default : Нет

Forced : Нет


Меню

00:00:00.000 : :Chapter 1

00:09:18.266 : :Chapter 2

00:19:37.634 : :Chapter 3

00:30:46.844 : :Chapter 4

00:40:13.702 : :Chapter 5

00:50:29.025 : :Chapter 6

00:59:45.456 : :Chapter 7

01:09:20.823 : :Chapter 8

01:18:58.275 : :Chapter 9

01:30:08.694 : :Chapter 10

01:39:08.734 : :Chapter 11

01:49:50.375 : :Chapter 12

02:00:24.717 : :Chapter 13

02:08:43.882 : :Chapter 14
Оповестить о раздаче Включить оповещение на почту ( о новом торрент-файле ), когда появится раздача с похожим названием: Шерлок Холмс: Дилогия, Sherlock Holmes: Dilogy

E-Mail адрес:
Внимание: Если вы не авторизованы, то для вас будет создана временная учетная запись (доступ к аккаунту будет прикреплен в письме).
Похожие файлы
Загрузка / Обновление
Категория Фильмы / HD / Full HD / Blu-Ray / 2K / 4K RSS лента
Добавлен (3 года, 10 месяцев назад)
Просмотров 81 раз (a)
Взят 1 раз (a)
Файлы 2, 15.52 GB (16 662 252 697 байт)
Раздал ViKa  (Искать торренты)
Участники
Раздают (отдают): 0 (26), Скачивают (качают): 0 (5), Завершено: 0 (159)
Просматривают

« Такси / Taxi (1998) BDRip 720p -†- ¿? -†- OST - Охотники за привидениями / Ghostbusters [Original Soundtrack] (1984, 1989) MP3 »

:: Список Комментариев
Нет комментариев.

 Нет комментариев

Поблагодарите нас, взамен, мы будем заливать еще больше раздач!


Счетчики
Рейтинг@Mail.ru Яндекс.Метрика


Быстрый Поиск





Спасибо Вам
Мы благодарны этим людям в поддержке сайта:
Нет данных для показа
Попади и ты в этот блок, поставь оценку 5 и получи 300 MB к отдаче:
Войти на сайт сейчас.

Правообладателям
По всем вопросам сотрудничества, удаления авторских файлов "пачкой", просьба отписаться по адреcу:
abuse@muz-tracker.net

Наши группы в VK, OK