Загрузка...

Самые активные релизы за неделю
Музыка / Мультимедиа Фильмы / AVI Фильмы / HDTV / HD / Blu-Ray
THE BEST OF THE BEST MUSIK COLLECTION (2007)
  • THE BEST OF THE BEST MUSIK COLLECTION (2007)
  • Top1000 Veronica 2016 (5CD) ( Hits / 2016 )
  • VA   -   Bravo Hits   Vol.92
  • Record Super Chart #465 ( Dance / 2016 )
  • Ляля Размахова - Букет (The Best) ( Шансон / 2008 )
  • VA - Record Super Chart № 465 [2016 / MP3 / 320] [House]
  • LUXEmusic - Dance Super Chart (Vol.97) ( House / 2016 )
  • VA - Super Hits of the '70s - Have a Nice Day Vol. 1
  • VA - Who's Afraid Of 138?! Best Of [2016 / MP3 / 320] [Trance]
  • VA - I Love Music! - Trap Edition Vol. 34 [2016 / MP3 / 320] [Electronic]
  • Катя Суржикова - Не спи, дорогой!
  • Unforgettable Moments with Jazz ( Jazz / 2016 )

:: Детали раздачи
Раздача является мультитрекерной — учтите, количество раздающих не будет совпадать с количеством участников на сайте (скачивание на клиентской стороне зависит от настроек µTorrent клиент программы, настройки -> Включить DHT, Обмен пирами и Поиск лок-х пиров).
Если висит надпись, пиры по нулям - не бойтесь, возможность скачать повторно раздачу - есть. Попробуйте, в случае отказа - прокоментируйте или нажмите на "Позвать скачавших".
Данная раздача является свободной — учитывается только количество отданного, количество скачанного не фиксируется.

Шаг вперед: Квадрология / Step Up Quadrilogy (2006/2008/2010/2012) BDRip 1080p Золотой торрент

Скачать Скачать .torrent файл
Смотреть / Слушать онлайн просмотр
Magnet-ссылка
Теги / Метки драма, мелодрама, музыка, 2006
Описание

Жанр: драма, мелодрама, музыка
Продолжительность: 01:43:30 | 01:37:31 | 01:47:11 | 01:38:38

Год выхода: 2006/2008/2010/2012




Шаг вперед / Step Up (2006) BDRip 1080p

Общее

Уникальный идентификатор : 221882044352674408915094634065234523756 (0xA6ECED65C3F345C1B89EE7904D60766C)

Полное имя : Шаг вперед.2006.BDRip.1080p.Rus.Eng.mkv

Формат : Matroska

Версия формата : Version 2

Размер файла : 5,77 Гбайт

Продолжительность : 1 ч. 43 м.

Общий поток : 7979 Кбит/сек

Название фильма : Шаг вперед.2006

Дата кодирования : UTC 2012-12-28 16:37:49

Программа кодирования : mkvmerge v5.8.0 ('No Sleep / Pillow') built on Sep 2 2012 15:37:04

Библиотека кодирования : libebml v1.2.3 + libmatroska v1.3.0


Видео

Идентификатор : 1

Формат : AVC

Формат/Информация : Advanced Video Codec

Профиль формата : High@L4.1

Параметр CABAC формата : Да

Параметр ReFrames формата : 5 кадров

Идентификатор кодека : V_MPEG4/ISO/AVC

Продолжительность : 1 ч. 43 м.

Битрейт : 6698 Кбит/сек

Ширина : 1920 пикселей

Высота : 816 пикселей

Соотношение сторон : 2,35:1

Режим частоты кадров : Постоянный

Частота кадров : 23,976 кадра/сек

Цветовое пространство : YUV

Субдискретизация насыщенности : 4:2:0

Битовая глубина : 8 бит

Тип развёртки : Прогрессивная

Бит/(Пиксели*Кадры) : 0.178

Размер потока : 4,73 Гбайт (82%)

Заголовок : Rip by Boriy

Библиотека кодирования : x264 core 129 r2230 1cffe9f

Настройки программы : cabac=1 / ref=5 / deblock=1:0:0 / analyse=0x3:0x113 / me=umh / subme=10 / psy=1 / psy_rd=1.00:0.10 / mixed_ref=1 / me_range=32 / chroma_me=1 / trellis=2 / 8x8dct=1 / cqm=0 / deadzone=21,11 / fast_pskip=0 / chroma_qp_offset=-2 / threads=12 / lookahead_threads=2 / sliced_threads=0 / nr=0 / decimate=0 / interlaced=0 / bluray_compat=0 / constrained_intra=0 / bframes=5 / b_pyramid=2 / b_adapt=2 / b_bias=0 / direct=3 / weightb=1 / open_gop=0 / weightp=2 / keyint=240 / keyint_min=23 / scenecut=40 / intra_refresh=0 / rc=2pass / mbtree=0 / bitrate=6698 / ratetol=1.0 / qcomp=0.60 / qpmin=0 / qpmax=69 / qpstep=4 / cplxblur=20.0 / qblur=0.5 / ip_ratio=1.40 / pb_ratio=1.30 / aq=1:0.80

Язык : English

Default : Да

Forced : Нет


Аудио #1

Идентификатор : 2

Формат : AC-3

Формат/Информация : Audio Coding 3

Расширение режима : CM (complete main)

Параметр Endianness формата : Big

Идентификатор кодека : A_AC3

Продолжительность : 1 ч. 43 м.

Вид битрейта : Постоянный

Битрейт : 640 Кбит/сек

Каналы : 6 каналов

Расположение каналов : Front: L C R, Side: L R, LFE

Частота : 48,0 КГц

Битовая глубина : 16 бит

Метод сжатия : С потерями

Размер потока : 474 Мбайт (8%)

Заголовок : Дубляж

Язык : Russian

Default : Да

Forced : Нет


Аудио #2

Идентификатор : 3

Формат : AC-3

Формат/Информация : Audio Coding 3

Расширение режима : CM (complete main)

Параметр Endianness формата : Big

Идентификатор кодека : A_AC3

Продолжительность : 1 ч. 43 м.

Вид битрейта : Постоянный

Битрейт : 640 Кбит/сек

Каналы : 6 каналов

Расположение каналов : Front: L C R, Side: L R, LFE

Частота : 48,0 КГц

Битовая глубина : 16 бит

Метод сжатия : С потерями

Размер потока : 474 Мбайт (8%)

Заголовок : Оригинал

Язык : English

Default : Нет

Forced : Нет


Текст #1

Идентификатор : 4

Формат : UTF-8

Идентификатор кодека : S_TEXT/UTF8

Идентификатор кодека/Информация : UTF-8 Plain Text

Язык : Russian

Default : Нет

Forced : Нет


Текст #2

Идентификатор : 5

Формат : UTF-8

Идентификатор кодека : S_TEXT/UTF8

Идентификатор кодека/Информация : UTF-8 Plain Text

Язык : English

Default : Нет

Forced : Нет


Меню

00:00:00.000 : :Chapter 1

00:09:40.078 : :Chapter 2

00:19:30.252 : :Chapter 3

00:27:58.510 : :Chapter 4

00:36:21.262 : :Chapter 5

00:44:25.329 : :Chapter 6

00:51:41.556 : :Chapter 7

00:56:47.487 : :Chapter 8

01:05:51.822 : :Chapter 9

01:18:35.794 : :Chapter 10

01:29:49.258 : :Chapter 11

01:39:09.193 : :Chapter 12

01:43:05.679 : :Chapter 13
Шаг вперед 2: Улицы / Step Up 2: The Streets (2008) BDRip 1080p

Общее

Уникальный идентификатор : 219651400548446671929221531715474658545 (0xA53F522AB7228E9BB3DB6101FC9D94F1)

Полное имя : Шаг вперед 2. Улицы.2008.BDRip.1080p.Rus.Eng.mkv

Формат : Matroska

Версия формата : Version 2

Размер файла : 5,76 Гбайт

Продолжительность : 1 ч. 37 м.

Общий поток : 8461 Кбит/сек

Название фильма : Шаг вперед 2: Улицы.2008

Дата кодирования : UTC 2012-12-28 17:05:18

Программа кодирования : mkvmerge v5.8.0 ('No Sleep / Pillow') built on Sep 2 2012 15:37:04

Библиотека кодирования : libebml v1.2.3 + libmatroska v1.3.0


Видео

Идентификатор : 1

Формат : AVC

Формат/Информация : Advanced Video Codec

Профиль формата : High@L4.1

Параметр CABAC формата : Да

Параметр ReFrames формата : 4 кадра

Идентификатор кодека : V_MPEG4/ISO/AVC

Продолжительность : 1 ч. 37 м.

Битрейт : 7186 Кбит/сек

Ширина : 1920 пикселей

Высота : 1040 пикселей

Соотношение сторон : 1,85:1

Режим частоты кадров : Постоянный

Частота кадров : 23,976 кадра/сек

Цветовое пространство : YUV

Субдискретизация насыщенности : 4:2:0

Битовая глубина : 8 бит

Тип развёртки : Прогрессивная

Бит/(Пиксели*Кадры) : 0.150

Размер потока : 4,78 Гбайт (83%)

Заголовок : Rip by Boriy

Библиотека кодирования : x264 core 129 r2230 1cffe9f

Настройки программы : cabac=1 / ref=4 / deblock=1:0:0 / analyse=0x3:0x113 / me=umh / subme=10 / psy=1 / psy_rd=1.00:0.10 / mixed_ref=1 / me_range=32 / chroma_me=1 / trellis=2 / 8x8dct=1 / cqm=0 / deadzone=21,11 / fast_pskip=0 / chroma_qp_offset=-2 / threads=12 / lookahead_threads=2 / sliced_threads=0 / nr=0 / decimate=0 / interlaced=0 / bluray_compat=0 / constrained_intra=0 / bframes=5 / b_pyramid=2 / b_adapt=2 / b_bias=0 / direct=3 / weightb=1 / open_gop=0 / weightp=2 / keyint=240 / keyint_min=23 / scenecut=40 / intra_refresh=0 / rc=2pass / mbtree=0 / bitrate=7186 / ratetol=1.0 / qcomp=0.60 / qpmin=0 / qpmax=69 / qpstep=4 / cplxblur=20.0 / qblur=0.5 / ip_ratio=1.40 / pb_ratio=1.30 / aq=1:0.80

Язык : English

Default : Да

Forced : Нет


Аудио #1

Идентификатор : 2

Формат : AC-3

Формат/Информация : Audio Coding 3

Расширение режима : CM (complete main)

Параметр Endianness формата : Big

Идентификатор кодека : A_AC3

Продолжительность : 1 ч. 37 м.

Вид битрейта : Постоянный

Битрейт : 640 Кбит/сек

Каналы : 6 каналов

Расположение каналов : Front: L C R, Side: L R, LFE

Частота : 48,0 КГц

Битовая глубина : 16 бит

Метод сжатия : С потерями

Размер потока : 446 Мбайт (8%)

Заголовок : Дубляж

Язык : Russian

Default : Да

Forced : Нет


Аудио #2

Идентификатор : 3

Формат : AC-3

Формат/Информация : Audio Coding 3

Расширение режима : CM (complete main)

Параметр Endianness формата : Big

Идентификатор кодека : A_AC3

Продолжительность : 1 ч. 37 м.

Вид битрейта : Постоянный

Битрейт : 640 Кбит/сек

Каналы : 6 каналов

Расположение каналов : Front: L C R, Side: L R, LFE

Частота : 48,0 КГц

Битовая глубина : 16 бит

Метод сжатия : С потерями

Размер потока : 446 Мбайт (8%)

Заголовок : Оригинал

Язык : English

Default : Нет

Forced : Нет


Текст #1

Идентификатор : 4

Формат : UTF-8

Идентификатор кодека : S_TEXT/UTF8

Идентификатор кодека/Информация : UTF-8 Plain Text

Язык : Russian

Default : Нет

Forced : Нет


Текст #2

Идентификатор : 5

Формат : UTF-8

Идентификатор кодека : S_TEXT/UTF8

Идентификатор кодека/Информация : UTF-8 Plain Text

Язык : English

Default : Нет

Forced : Нет


Меню

00:00:00.000 : :Chapter 1

00:08:01.397 : :Chapter 2

00:13:54.375 : :Chapter 3

00:16:48.632 : :Chapter 4

00:21:43.927 : :Chapter 5

00:26:57.407 : :Chapter 6

00:30:07.180 : :Chapter 7

00:36:05.204 : :Chapter 8

00:42:33.384 : :Chapter 9

00:48:13.849 : :Chapter 10

00:54:56.710 : :Chapter 11

01:01:41.197 : :Chapter 12

01:08:07.208 : :Chapter 13

01:14:42.811 : :Chapter 14

01:23:29.963 : :Chapter 15

01:31:25.313 : :Chapter 16
Шаг вперед 3 / Step Up 3 (2010) BDRip 1080p

Общее

Уникальный идентификатор : 174226198130330980244664694842512474567 (0x8312BEC5ECC85862A2729D44A5CD81C7)

Полное имя : Шаг вперед 3.2010.BDRip.1080p.Rus.Eng.mkv

Формат : Matroska

Версия формата : Version 2

Размер файла : 5,77 Гбайт

Продолжительность : 1 ч. 47 м.

Общий поток : 7709 Кбит/сек

Название фильма : Шаг вперед 3.2010

Дата кодирования : UTC 2012-12-28 17:15:32

Программа кодирования : mkvmerge v5.8.0 ('No Sleep / Pillow') built on Sep 2 2012 15:37:04

Библиотека кодирования : libebml v1.2.3 + libmatroska v1.3.0


Видео

Идентификатор : 1

Формат : AVC

Формат/Информация : Advanced Video Codec

Профиль формата : High@L4.1

Параметр CABAC формата : Да

Параметр ReFrames формата : 4 кадра

Идентификатор кодека : V_MPEG4/ISO/AVC

Продолжительность : 1 ч. 47 м.

Битрейт : 6424 Кбит/сек

Ширина : 1920 пикселей

Высота : 1080 пикселей

Соотношение сторон : 16:9

Режим частоты кадров : Постоянный

Частота кадров : 23,976 кадра/сек

Цветовое пространство : YUV

Субдискретизация насыщенности : 4:2:0

Битовая глубина : 8 бит

Тип развёртки : Прогрессивная

Бит/(Пиксели*Кадры) : 0.129

Размер потока : 4,70 Гбайт (81%)

Заголовок : Rip by Boriy

Библиотека кодирования : x264 core 129 r2230 1cffe9f

Настройки программы : cabac=1 / ref=4 / deblock=1:0:0 / analyse=0x3:0x113 / me=umh / subme=10 / psy=1 / psy_rd=1.00:0.10 / mixed_ref=1 / me_range=32 / chroma_me=1 / trellis=2 / 8x8dct=1 / cqm=0 / deadzone=21,11 / fast_pskip=0 / chroma_qp_offset=-2 / threads=12 / lookahead_threads=2 / sliced_threads=0 / nr=0 / decimate=0 / interlaced=0 / bluray_compat=0 / constrained_intra=0 / bframes=5 / b_pyramid=2 / b_adapt=2 / b_bias=0 / direct=3 / weightb=1 / open_gop=0 / weightp=2 / keyint=240 / keyint_min=23 / scenecut=40 / intra_refresh=0 / rc=2pass / mbtree=0 / bitrate=6424 / ratetol=1.0 / qcomp=0.60 / qpmin=0 / qpmax=69 / qpstep=4 / cplxblur=20.0 / qblur=0.5 / ip_ratio=1.40 / pb_ratio=1.30 / aq=1:0.80

Язык : English

Default : Да

Forced : Нет


Аудио #1

Идентификатор : 2

Формат : AC-3

Формат/Информация : Audio Coding 3

Расширение режима : CM (complete main)

Параметр Endianness формата : Big

Идентификатор кодека : A_AC3

Продолжительность : 1 ч. 47 м.

Вид битрейта : Постоянный

Битрейт : 640 Кбит/сек

Каналы : 6 каналов

Расположение каналов : Front: L C R, Side: L R, LFE

Частота : 48,0 КГц

Битовая глубина : 16 бит

Метод сжатия : С потерями

Размер потока : 491 Мбайт (8%)

Заголовок : Дубляж

Язык : Russian

Default : Да

Forced : Нет


Аудио #2

Идентификатор : 3

Формат : AC-3

Формат/Информация : Audio Coding 3

Расширение режима : CM (complete main)

Параметр Endianness формата : Big

Идентификатор кодека : A_AC3

Продолжительность : 1 ч. 47 м.

Вид битрейта : Постоянный

Битрейт : 640 Кбит/сек

Каналы : 6 каналов

Расположение каналов : Front: L C R, Side: L R, LFE

Частота : 48,0 КГц

Битовая глубина : 16 бит

Метод сжатия : С потерями

Размер потока : 491 Мбайт (8%)

Заголовок : Оигинал

Язык : English

Default : Нет

Forced : Нет


Текст #1

Идентификатор : 4

Формат : UTF-8

Идентификатор кодека : S_TEXT/UTF8

Идентификатор кодека/Информация : UTF-8 Plain Text

Язык : Russian

Default : Нет

Forced : Нет


Текст #2

Идентификатор : 5

Формат : UTF-8

Идентификатор кодека : S_TEXT/UTF8

Идентификатор кодека/Информация : UTF-8 Plain Text

Язык : English

Default : Нет

Forced : Нет


Меню

00:00:00.000 : :Chapter 1

00:04:30.854 : :Chapter 2

00:09:58.681 : :Chapter 3

00:15:26.759 : :Chapter 4

00:20:01.784 : :Chapter 5

00:24:44.149 : :Chapter 6

00:29:44.199 : :Chapter 7

00:37:10.311 : :Chapter 8

00:41:22.271 : :Chapter 9

00:45:44.700 : :Chapter 10

00:49:22.084 : :Chapter 11

00:56:06.363 : :Chapter 12

01:00:27.624 : :Chapter 13

01:05:34.097 : :Chapter 14

01:12:26.801 : :Chapter 15

01:19:02.655 : :Chapter 16

01:24:22.766 : :Chapter 17

01:30:23.668 : :Chapter 18

01:35:01.696 : :Chapter 19

01:40:01.078 : :Chapter 20
Шаг вперед 4 / Step Up Revolution (2012) BDRip 1080p

Общее

Уникальный идентификатор : 251524821968615215452803405057203507705 (0xBD39EB2BE6425DBDBE674D98614E11F9)

Полное имя : T:КиноШаг вперед. КвадрологияШаг вперед 4.2012.BDRip.1080p.Rus.Eng.mkv

Формат : Matroska

Версия формата : Version 2

Размер файла : 5,77 Гбайт

Продолжительность : 1 ч. 38 м.

Общий поток : 8372 Кбит/сек

Название фильма : Шаг вперед 4.2012

Дата кодирования : UTC 2012-12-28 17:36:21

Программа кодирования : mkvmerge v5.8.0 ('No Sleep / Pillow') built on Sep 2 2012 15:37:04

Библиотека кодирования : libebml v1.2.3 + libmatroska v1.3.0


Видео

Идентификатор : 1

Формат : AVC

Формат/Информация : Advanced Video Codec

Профиль формата : High@L4.1

Параметр CABAC формата : Да

Параметр ReFrames формата : 5 кадров

Идентификатор кодека : V_MPEG4/ISO/AVC

Продолжительность : 1 ч. 38 м.

Битрейт : 7090 Кбит/сек

Ширина : 1920 пикселей

Высота : 800 пикселей

Соотношение сторон : 2,40:1

Режим частоты кадров : Постоянный

Частота кадров : 23,976 кадра/сек

Цветовое пространство : YUV

Субдискретизация насыщенности : 4:2:0

Битовая глубина : 8 бит

Тип развёртки : Прогрессивная

Бит/(Пиксели*Кадры) : 0.193

Размер потока : 4,77 Гбайт (83%)

Заголовок : Rip by Boriy

Библиотека кодирования : x264 core 129 r2230 1cffe9f

Настройки программы : cabac=1 / ref=5 / deblock=1:0:0 / analyse=0x3:0x113 / me=umh / subme=10 / psy=1 / psy_rd=1.00:0.10 / mixed_ref=1 / me_range=32 / chroma_me=1 / trellis=2 / 8x8dct=1 / cqm=0 / deadzone=21,11 / fast_pskip=0 / chroma_qp_offset=-2 / threads=12 / lookahead_threads=2 / sliced_threads=0 / nr=0 / decimate=0 / interlaced=0 / bluray_compat=0 / constrained_intra=0 / bframes=5 / b_pyramid=2 / b_adapt=2 / b_bias=0 / direct=3 / weightb=1 / open_gop=0 / weightp=2 / keyint=240 / keyint_min=23 / scenecut=40 / intra_refresh=0 / rc=2pass / mbtree=0 / bitrate=7090 / ratetol=1.0 / qcomp=0.60 / qpmin=0 / qpmax=69 / qpstep=4 / cplxblur=20.0 / qblur=0.5 / ip_ratio=1.40 / pb_ratio=1.30 / aq=1:0.80

Язык : English

Default : Да

Forced : Нет


Аудио #1

Идентификатор : 2

Формат : AC-3

Формат/Информация : Audio Coding 3

Расширение режима : CM (complete main)

Параметр Endianness формата : Big

Идентификатор кодека : A_AC3

Продолжительность : 1 ч. 38 м.

Вид битрейта : Постоянный

Битрейт : 640 Кбит/сек

Каналы : 6 каналов

Расположение каналов : Front: L C R, Side: L R, LFE

Частота : 48,0 КГц

Битовая глубина : 16 бит

Метод сжатия : С потерями

Размер потока : 452 Мбайт (8%)

Заголовок : Дубляж

Язык : Russian

Default : Да

Forced : Нет


Аудио #2

Идентификатор : 3

Формат : AC-3

Формат/Информация : Audio Coding 3

Расширение режима : CM (complete main)

Параметр Endianness формата : Big

Идентификатор кодека : A_AC3

Продолжительность : 1 ч. 38 м.

Вид битрейта : Постоянный

Битрейт : 640 Кбит/сек

Каналы : 6 каналов

Расположение каналов : Front: L C R, Side: L R, LFE

Частота : 48,0 КГц

Битовая глубина : 16 бит

Метод сжатия : С потерями

Размер потока : 452 Мбайт (8%)

Заголовок : Оригинал

Язык : English

Default : Нет

Forced : Нет


Текст #1

Идентификатор : 4

Формат : UTF-8

Идентификатор кодека : S_TEXT/UTF8

Идентификатор кодека/Информация : UTF-8 Plain Text

Язык : Russian

Default : Нет

Forced : Нет


Текст #2

Идентификатор : 5

Формат : UTF-8

Идентификатор кодека : S_TEXT/UTF8

Идентификатор кодека/Информация : UTF-8 Plain Text

Язык : English

Default : Нет

Forced : Нет


Меню

00:00:00.000 : :Chapter 1

00:07:36.038 : :Chapter 2

00:16:57.224 : :Chapter 3

00:23:15.560 : :Chapter 4

00:34:18.514 : :Chapter 5

00:39:48.677 : :Chapter 6

00:48:51.803 : :Chapter 7

00:58:42.769 : :Chapter 8

01:03:37.647 : :Chapter 9

01:13:39.164 : :Chapter 10

01:26:39.861 : :Chapter 11

01:31:31.903 : :Chapter 12

01:38:38.912 : :Chapter 13
Оповестить о раздаче Включить оповещение на почту ( о новом торрент-файле ), когда появится раздача с похожим названием: Шаг вперед: Квадрология, Step Up Quadrilogy

E-Mail адрес:
Внимание: Если вы не авторизованы, то для вас будет создана временная учетная запись (доступ к аккаунту будет прикреплен в письме).
Похожие файлы
Загрузка / Обновление
Категория Фильмы / HDTV / HD / Blu-Ray RSS лента
Добавлен (3 года, 6 месяцев назад)
Просмотров 84 раз (a)
Взят 1 раз (a)
Файлы 4, 23.07 GB (24 775 105 424 байт)
Оценка
IMDB: 6.5, 76,740 голоса (ов), Кинопоиск: 7.597, 77764 голоса (ов)
Раздал ViKa  (Искать торренты)
Участники
Раздают (отдают): 0 (25), Скачивают (качают): 0 (5), Завершено: 0 (423)
Просматривают

« Факультет / The Faculty (1998) BDRip 1080p -†- ¿? -†- Бригада. Наследник (2012) Blu-Ray 1080p »

:: Список Комментариев
Нет комментариев.

 Нет комментариев

Счетчики
Рейтинг@Mail.ru Яндекс.Метрика


Поделитесь в социальных сетях


Быстрый Поиск





Спасибо Вам
Мы благодарны этим людям в поддержке сайта:
MMMNNNBBB
Попади и ты в этот блок, поставь оценку 5 и получи 300 MB к отдаче:
Войти на сайт сейчас.

Правобладателям
По всем вопросам сотрудничества, удаления авторских файлов "пачкой", просьба отписаться по адреcу:
abuse@muz-tracker.net

Наша группа в VK