Самые активные релизы за неделю
Музыка / Мультимедиа Сериалы Фильмы / AVI
Michael Jackson - King of Pop [2CD Deluxe UK Edition] (2015) MP3
  • Michael Jackson - King of Pop [2CD Deluxe UK Edition] (2015) MP3
  • VA - Cold Emotions Melancholic Piano Melodies Collection (2014) MP3
  • VA - Kiss FM UA - TOP 40 PARADE - 05 February  [2017 / MP3 / 320] [Club]
  • VA - I Love Music! - Hard Rock Edition Vol.31 [2017 / MP3 / 320] [Hard Rock]
  • Evanescence - Lost Whispers [2016 / MP3 / 320] [Alternative]
  • VA - Trance In Motion Volume 209 (Mixed by Emil Sorous) [2017 / MP3 / 320] [Trance]
  • VA - Полный отрыв. Зимние хиты (2016) MP3
  • VA - Retro Party. Favorite Hits 80-90's [2017 / MP3 / 320] [Disco]
  • Сборник - Зимняя 100-ка хитовая (2014) MP3
  • Schiller [6 CD] (1999-2008) APE
  • VA - Kiss FM Fresh Top 40 - 4 Februarie 2017 [2017 / MP3 / 320] [Dance]
  • VA - Top 100 Beatport Downloads January [2017 / MP3 / 320] [House]

:: Детали раздачи
Раздача является мультитрекерной — учтите, количество раздающих не будет совпадать с количеством участников на сайте (скачивание на клиентской стороне зависит от настроек µTorrent клиент программы, настройки -> Включить DHT, Обмен пирами и Поиск лок-х пиров).
Если висит надпись, пиры по нулям - не бойтесь, возможность скачать повторно раздачу - есть. Попробуйте, в случае отказа - прокоментируйте или нажмите на "Позвать скачавших".
Данная раздача является свободной — учитывается только количество отданного, количество скачанного не фиксируется.

Иcчeзнoвeниe Элиc Крид / Thе Disаppеаrаnсе оf Аliсе Сrееd (2009) BDRip 1080p GoldenShara Золотой торрент

Скачать Скачать .torrent файл
Смотреть / Слушать онлайн просмотр
Magnet-ссылка
Теги / Метки триллер, криминал, 2009
Описание
Информация о фильме


Название: Иcчeзнoвeниe Элиc Крид

Оригинальное название: Thе Disаppеаrаnсе оf Аliсе Сrееd

Год выхода: 2009

Жанр: триллер, криминал
Режиссер: Дж. Блэйкcoн

В ролях: Мартин Компстон, Эдди Марсан, Джемма Артертон.


Сюжет фильма: Двое мужчин укрепляют непривлекательную английскую квартиру так, чтобы она могла использоваться как тюрьма, и затем похищают женщину и привязывают ее к кровати. До того, как зритель успевает опомниться, он будет погружен в очень неприятную и непростую ситуацию.


Продолжительность: 01:40:08

Перевод: Профессиональный (дублированный) [Лицензия]

Выпущено: Великобритания / CinemaNX, Isle of Man Film


Файл

Качество: BDRip [1080p]

Видео: 1920x800, 5860 Кбит/сек, 23,976 кадр/сек, AVC, x264, 2,40:1, 0.159 Бит/[Пиксели*Кадры], 2pass

Аудио: AC-3, 384 Кбит/сек, 6 канала(ов), 48,0 КГц

Размер: 2,19 ГБ


Бюджет Фильма: -

Кассовые сборы: -



http://www.kinopoisk.ru/rating/450476.gif
http://firepic.org/images/2011-08/m5lb34cfqjhsrx8i58t9mb6uy.gif


Скриншоты


Формат : Matroska

Версия формата : Version 2

Размер файла : 4,37 Гбайт

Продолжительность : 1 ч. 40 м.

Общий поток : 6243 Кбит/сек

Дата кодирования : UTC 2013-01-09 18:50:36

Программа кодирования : mkvmerge v5.8.0 ('No Sleep / Pillow') built on Sep 2 2012 15:37:04

Библиотека кодирования : libebml v1.2.3 + libmatroska v1.3.0


Видео

Идентификатор : 1

Формат : AVC

Формат/Информация : Advanced Video Codec

Профиль формата : High@L4.0

Параметр CABAC формата : Да

Параметр ReFrames формата : 4 кадра

Идентификатор кодека : V_MPEG4/ISO/AVC

Продолжительность : 1 ч. 40 м.

Битрейт : 5860 Кбит/сек

Ширина : 1920 пикселей

Высота : 800 пикселей

Соотношение сторон : 2,40:1

Режим частоты кадров : Постоянный

Частота кадров : 23,976 кадра/сек

Цветовое пространство : YUV

Субдискретизация насыщенности : 4:2:0

Битовая глубина : 8 бит

Тип развёртки : Прогрессивная

Бит/(Пиксели*Кадры) : 0.159

Размер потока : 4,01 Гбайт (92%)

Библиотека кодирования : x264 core 129 r2230 1cffe9f

Настройки программы : cabac=1 / ref=3 / deblock=1:0:0 / analyse=0x3:0x113 / me=hex / subme=7 / psy=1 / psy_rd=1.00:0.00 / mixed_ref=1 / me_range=16 / chroma_me=1 / trellis=1 / 8x8dct=1 / cqm=0 / deadzone=21,11 / fast_pskip=1 / chroma_qp_offset=-2 / threads=6 / lookahead_threads=1 / sliced_threads=0 / nr=0 / decimate=1 / interlaced=0 / bluray_compat=0 / constrained_intra=0 / bframes=3 / b_pyramid=2 / b_adapt=1 / b_bias=0 / direct=1 / weightb=1 / open_gop=0 / weightp=2 / keyint=240 / keyint_min=23 / scenecut=40 / intra_refresh=0 / rc_lookahead=40 / rc=2pass / mbtree=1 / bitrate=5860 / ratetol=1.0 / qcomp=0.60 / qpmin=0 / qpmax=69 / qpstep=4 / cplxblur=20.0 / qblur=0.5 / ip_ratio=1.40 / aq=1:1.00

Язык : English

Default : Да

Forced : Нет


Аудио

Идентификатор : 2

Формат : AC-3

Формат/Информация : Audio Coding 3

Расширение режима : CM (complete main)

Параметр Endianness формата : Big

Идентификатор кодека : A_AC3

Продолжительность : 1 ч. 40 м.

Вид битрейта : Постоянный

Битрейт : 384 Кбит/сек

Каналы : 6 каналов

Расположение каналов : Front: L C R, Side: L R, LFE

Частота : 48,0 КГц

Битовая глубина : 16 бит

Метод сжатия : С потерями

Размер потока : 275 Мбайт (6%)

Default : Да

Forced : Нет
Оповестить о раздаче Включить оповещение на почту ( о новом торрент-файле ), когда появится раздача с похожим названием: Иcчeзнoвeниe Элиc Крид, Thе Disаppеаrаnсе оf Аliсе Сrееd

E-Mail адрес:
Внимание: Если вы не авторизованы, то для вас будет создана временная учетная запись (доступ к аккаунту будет прикреплен в письме).
Похожие файлы
Загрузка / Обновление
Категория Фильмы / HDTV / HD / Blu-Ray RSS лента
Добавлен (3 года, 9 месяцев назад)
Просмотров 46 раз (a)
Взят 0 раз (a)
Файлы 1, 4.37 GB (4 688 875 931 байт)
Оценка
IMDB: 6.8, 17357 голоса (ов), Кинопоиск: 6.822, 4543 голоса (ов)
Раздал ViKa  (Искать торренты)
Участники
Раздают (отдают): 0 (1), Скачивают (качают): 0 (1), Завершено: 0 (10)
Просматривают

« Иcчeзнoвeниe Элиc Крид / Thе Disаppеаrаnсе оf Аliсе Сrееd (2009) BDRip 720p GoldenShara -†- ¿? -†- Отклонение / Swerve (2011) BDRip 720p »

:: Список Комментариев
Нет комментариев.

 Нет комментариев

Счетчики
Рейтинг@Mail.ru


Поделитесь в социальных сетях


Быстрый Поиск





Спасибо Вам
Мы благодарны этим людям в поддержке сайта:
valmit2011, MMMNNNBBB
Попади и ты в этот блок, поставь оценку 5 и получи 300 MB к отдаче:
Войти на сайт сейчас.

Правообладателям
По всем вопросам сотрудничества, удаления авторских файлов "пачкой", просьба отписаться по адреcу:
abuse@muz-tracker.net

Наши группы в VK, OK