Самые активные релизы за неделю
Музыка / Мультимедиа Сериалы Фильмы / AVI / MKV / MP4 Фильмы / HD / Full HD / Blu-Ray / 2K / 4K
VA - Best Hits March [2017 / MP3 / 320] [Dance]
  • VA - Best Hits March  [2017 / MP3 / 320] [Dance]
  • VA - Boom Hits Vol.743  [2017 / MP3 / 320] [Dance]
  • VA - Boom Hits Vol.744   [2017 / MP3 / 320] [Dance]
  • Сборник - Музыка для вашего Авто [2017 / MP3 / 320] [Club]
  • VA - I Love Music! - Hard Rock Edition Vol.33 [2017 / MP3 / 320] [Hard Rock]
  • Gorillaz - Humanz [2017 / MP3 / 320] [Electronic]
  • Deep House Collection (Vol.117) ( House / 2017 )
  • K-Boom Hits (Vol.422) ( Dance / 2017 )
  • Armin van Buuren - A State Of Trance 808 [2017 / MP3 / 320] [Trance]
  • VA - I Love Music! - Alternative Rock Edition Vol.33 [2017 / MP3 / 320] [AlternRock]
  • Symphonic & Opera Metal - Collection / Metal
  • I Love Music! - Hard Rock Edition (Vol. 32) ( Hard rock / 2017 )

:: Детали раздачи
Раздача является мультитрекерной — учтите, количество раздающих не будет совпадать с количеством участников на сайте (скачивание на клиентской стороне зависит от настроек µTorrent клиент программы, настройки -> Включить DHT, Обмен пирами и Поиск лок-х пиров).
Если висит надпись, пиры по нулям - не бойтесь, возможность скачать повторно раздачу - есть. Попробуйте, в случае отказа - прокоментируйте или нажмите на "Позвать скачавших".

VA - Royal Flush - Vol.5 (2013) FLAC

Скачать Скачать .torrent файл (основная ссылка для скачивания файла)
Смотреть / Слушать онлайн просмотр (ссылка для просмотра файла через плагин 'Torrent Stream')
Magnet-ссылка (альтернативная ссылка для скачивания файла)
Теги / Метки psy, progressive, 2013
Описание
Название: Royal Flush - Vol.5

Исполнитель: VA

Год: 2013

Жанр: Psy-Progressive


Продолжительность: 02:28:51

Формат/Кодек: FLAC

Битрейт аудио: Lossless



Трек-лист


Eac

Exact Audio Copy V1.0 beta 3 from 29. August 2011

EAC extraction logfile from 3. May 2013, 15:03

Various / Royal Flush Vol.5 - CD1

Used drive : MATSHITABD-RE UJ235A Adapter: 0 ID: 1

Read mode : Secure

Utilize accurate stream : Yes

Defeat audio cache : Yes

Make use of C2 pointers : No

Read offset correction : 102

Overread into Lead-In and Lead-Out : No

Fill up missing offset samples with silence : Yes

Delete leading and trailing silent blocks : No

Null samples used in CRC calculations : Yes

Used interface : Native Win32 interface for Win NT 2000

Gap handling : Appended to previous track

Used output format : User Defined Encoder

Selected bitrate : 1024 kBit/s

Quality : High

Add ID3 tag : No

Command line compressor : C:Program Files (x86)FLACflac.exe

Additional command line options : -8 -V -T "ARTIST=%artist%" -T "TITLE=%title%" -T "ALBUM=%albumtitle%" -T "DATE=%year%" -T "TRACKNUMBER=%tracknr%" -T "GENRE=%genre%" -T "COMMENT=EAC FLAC -8" %source%

TOC of the extracted CD

Track | Start | Length | Start sector | End sector

---------------------------------------------------------

1 | 0:00.00 | 9:48.06 | 0 | 44105

2 | 9:48.06 | 7:29.00 | 44106 | 77780

3 | 17:17.06 | 7:16.45 | 77781 | 110525

4 | 24:33.51 | 8:26.51 | 110526 | 148526

5 | 33:00.27 | 7:44.27 | 148527 | 183353

6 | 40:44.54 | 6:52.46 | 183354 | 214299

7 | 47:37.25 | 9:38.41 | 214300 | 257690

8 | 57:15.66 | 9:22.60 | 257691 | 299900

9 | 66:38.51 | 5:37.42 | 299901 | 325217

Track 1

Filename C:VA - Royal Flush Vol.5 (Plusquam Records 2013)CD11. Zentura – Human Race.wav

Pre-gap length 0:00:02.00

Peak level 98.7 %

Extraction speed 3.0 X

Track quality 100.0 %

Test CRC 29EB347C

Copy CRC 29EB347C

Track not present in AccurateRip

Copy OK

Track 2

Filename C:VA - Royal Flush Vol.5 (Plusquam Records 2013)CD12. Liquid Soul – Dreamdancer 2013.wav

Pre-gap length 0:00:02.00

Peak level 98.6 %

Extraction speed 3.4 X

Track quality 100.0 %

Test CRC 22A8D915

Copy CRC 22A8D915

Track not present in AccurateRip

Copy OK

Track 3

Filename C:VA - Royal Flush Vol.5 (Plusquam Records 2013)CD13. D-Addiction – Just For The Music.wav

Pre-gap length 0:00:02.00

Peak level 98.6 %

Extraction speed 3.6 X

Track quality 99.9 %

Test CRC 6DD6A2C8

Copy CRC 6DD6A2C8

Track not present in AccurateRip

Copy OK

Track 4

Filename C:VA - Royal Flush Vol.5 (Plusquam Records 2013)CD14. E-Clip – Crystal Dreams.wav

Pre-gap length 0:00:02.00

Peak level 98.6 %

Extraction speed 4.2 X

Track quality 100.0 %

Test CRC 26BCC566

Copy CRC 26BCC566

Track not present in AccurateRip

Copy OK

Track 5

Filename C:VA - Royal Flush Vol.5 (Plusquam Records 2013)CD15. Osher – Human Needs.wav

Pre-gap length 0:00:02.00

Peak level 98.6 %

Extraction speed 4.5 X

Track quality 100.0 %

Test CRC 2B802A49

Copy CRC 2B802A49

Track not present in AccurateRip

Copy OK

Track 6

Filename C:VA - Royal Flush Vol.5 (Plusquam Records 2013)CD16. Rocky – Priority Reboot (Lifeforms Remix).wav

Pre-gap length 0:00:02.00

Peak level 98.6 %

Extraction speed 4.8 X

Track quality 100.0 %

Test CRC E87CAEA7

Copy CRC E87CAEA7

Track not present in AccurateRip

Copy OK

Track 7

Filename C:VA - Royal Flush Vol.5 (Plusquam Records 2013)CD17. Suntree – Human Eye.wav

Pre-gap length 0:00:02.00

Peak level 98.6 %

Extraction speed 5.2 X

Track quality 100.0 %

Test CRC F972586C

Copy CRC F972586C

Track not present in AccurateRip

Copy OK

Track 8

Filename C:VA - Royal Flush Vol.5 (Plusquam Records 2013)CD18. Aerospace – Echo Rivers.wav

Pre-gap length 0:00:02.00

Peak level 98.6 %

Extraction speed 5.5 X

Track quality 100.0 %

Test CRC 62E84A1B

Copy CRC 62E84A1B

Track not present in AccurateRip

Copy OK

Track 9

Filename C:VA - Royal Flush Vol.5 (Plusquam Records 2013)CD19. The Riddler – Confusion.wav

Pre-gap length 0:00:02.00

Peak level 100.0 %

Extraction speed 5.5 X

Track quality 100.0 %

Test CRC A1FA3002

Copy CRC A1FA3002

Track not present in AccurateRip

Copy OK

None of the tracks are present in the AccurateRip

No errors occurred

End of status report

==== Log checksum CD377006ADC28ADC42E02D02E93A328CB6B85B02A943FFD877D7522760AED6A9 ====
CD2


Cue

REM GENRE "Progressive "

REM DATE 2013

REM DISCID 7F10F009

REM COMMENT "ExactAudioCopy v1.0b3"

PERFORMER "Various"

TITLE "Royal Flush Vol.5 - CD1"

FILE "01. Zentura – Human Race.wav" WAVE

TRACK 01 AUDIO

TITLE "Human Race"

PERFORMER "Zentura"

FLAGS DCP

INDEX 01 00:00:00

TRACK 02 AUDIO

TITLE "Dreamdancer 2013"

PERFORMER "Liquid Soul"

FLAGS DCP

INDEX 00 09:46:06

FILE "02. Liquid Soul – Dreamdancer 2013.wav" WAVE

INDEX 01 00:00:00

TRACK 03 AUDIO

TITLE "Just For The Music"

PERFORMER "D-Addiction"

FLAGS DCP

INDEX 00 07:27:00

FILE "03. D-Addiction – Just For The Music.wav" WAVE

INDEX 01 00:00:00

TRACK 04 AUDIO

TITLE "Crystal Dreams"

PERFORMER "E-Clip"

FLAGS DCP

INDEX 00 07:14:45

FILE "04. E-Clip – Crystal Dreams.wav" WAVE

INDEX 01 00:00:00

TRACK 05 AUDIO

TITLE "Human Needs"

PERFORMER "Osher"

FLAGS DCP

INDEX 00 08:24:51

FILE "05. Osher – Human Needs.wav" WAVE

INDEX 01 00:00:00

TRACK 06 AUDIO

TITLE "Priority Reboot (Lifeforms Remix)"

PERFORMER "Rocky"

FLAGS DCP

INDEX 00 07:42:27

FILE "06. Rocky – Priority Reboot (Lifeforms Remix).wav" WAVE

INDEX 01 00:00:00

TRACK 07 AUDIO

TITLE "Human Eye"

PERFORMER "Suntree"

FLAGS DCP

INDEX 00 06:50:46

FILE "07. Suntree – Human Eye.wav" WAVE

INDEX 01 00:00:00

TRACK 08 AUDIO

TITLE "Echo Rivers"

PERFORMER "Aerospace"

FLAGS DCP

INDEX 00 09:36:41

FILE "08. Aerospace – Echo Rivers.wav" WAVE

INDEX 01 00:00:00

TRACK 09 AUDIO

TITLE "Confusion"

PERFORMER "The Riddler"

FLAGS DCP

INDEX 00 09:20:60

FILE "09. The Riddler – Confusion.wav" WAVE

INDEX 01 00:00:00
CD2


http://4.firepic.org/4/images/2013-05/18/bgto1sxsd2hl.gif
Скриншоты
Похожие файлы
Загрузка / Обновление
Категория Музыка / Мультимедиа RSS лента
Добавлен (3 года, 11 месяцев назад)
Просмотров 116 раз (a)
Взят 1 раз (a)
Файлы 23, 937.71 MB (983 256 238 байт)
Раздал ViKa  (Искать торренты)
Участники
Скачивают (качают): 0 (1), Завершено: 0 (0)
Просматривают

« VA - Goa Sun - Vol.2 (2013) FLAC -†- ¿? -†- OST - Grand Theft Auto: Vice City [Original Soundtrack] (2002) MP3 »

:: Список Комментариев
Нет комментариев.

 Нет комментариев

Счетчики
Рейтинг@Mail.ru Яндекс.Метрика


Быстрый Поиск





Спасибо Вам
Мы благодарны этим людям в поддержке сайта:
Нет данных для показа
Попади и ты в этот блок, поставь оценку 5 и получи 300 MB к отдаче:
Войти на сайт сейчас.

Правообладателям
По всем вопросам сотрудничества, удаления авторских файлов "пачкой", просьба отписаться по адреcу:
abuse@muz-tracker.net

Наши группы в VK, OK