Самые активные релизы за неделю
Музыка / Мультимедиа Картинки / Фото Сериалы Фильмы / AVI / MKV / MP4 Фильмы / HD / Full HD / Blu-Ray / 2K / 4K
Top-600 Best Blues & Rock - Collection ( Blues / 2012 )
  • Top-600 Best Blues & Rock - Collection ( Blues / 2012 )
  • Популярные новинки (№7) ( Поп  / 2017 )
  • Reggae Sound System ( Reggae / 2017 )
  • Выше облаков. Русский сборник поп музыки ( Поп / 2017 )
  • VA - PRODJ SUMMER RHTYM [2017 / MP3 / 320] [Dance]
  • Ruben De Ronde & Rodg - Togetherr ( Trance / 2017 )
  • Время-времечко. Супер сборник русского шансона ( Шансон / 2017 )
  • Relaxing Instrumental Jazz Music ( Jazz / 2017 )
  • Best Chillout Vol.30 ( Chillout / 2017 )
  • Woody Herman - Verve Jazz Masters 54 (1996) MP3
  • Armin van Buuren - A state of Trance (818) ( Trance / 2017 )
  • / Dance / 2017

:: Детали раздачи
Раздача является мультитрекерной — учтите, количество раздающих не будет совпадать с количеством участников на сайте (скачивание на клиентской стороне зависит от настроек µTorrent клиент программы, настройки -> Включить DHT, Обмен пирами и Поиск лок-х пиров).
Если висит надпись, пиры по нулям - не бойтесь, возможность скачать повторно раздачу - есть. Попробуйте, в случае отказа - прокоментируйте или нажмите на "Позвать скачавших".

VA - Goa Sun - Vol.2 (2013) FLAC

Скачать Скачать .torrent файл (основная ссылка для скачивания файла)
Смотреть / Слушать онлайн просмотр (ссылка для просмотра файла через плагин 'Torrent Stream')
Magnet-ссылка (альтернативная ссылка для скачивания файла)
Теги / Метки psy, progpsy, trance full on, 2013
Описание
VA - Goa Sun - Vol.2 (2013) FLAC
Название: Goa Sun - Vol.2

Исполнитель: VA

Год: 2013

Жанр: Psy-Prog./Psy-Trance /Full On


Продолжительность: 02:33:42

Формат/Кодек: flac

Битрейт аудио: lossless



Трек-лист


Eac

Exact Audio Copy V1.0 beta 3 from 29. August 2011

EAC extraction logfile from 1. May 2013, 4:42

Various / Goa Sun vol.2 - CD1

Used drive : MATSHITABD-RE UJ235A Adapter: 0 ID: 1

Read mode : Secure

Utilize accurate stream : Yes

Defeat audio cache : Yes

Make use of C2 pointers : No

Read offset correction : 102

Overread into Lead-In and Lead-Out : No

Fill up missing offset samples with silence : Yes

Delete leading and trailing silent blocks : No

Null samples used in CRC calculations : Yes

Used interface : Native Win32 interface for Win NT 2000

Gap handling : Appended to previous track

Used output format : User Defined Encoder

Selected bitrate : 1024 kBit/s

Quality : High

Add ID3 tag : No

Command line compressor : C:Program Files (x86)FLACflac.exe

Additional command line options : -8 -V -T "ARTIST=%artist%" -T "TITLE=%title%" -T "ALBUM=%albumtitle%" -T "DATE=%year%" -T "TRACKNUMBER=%tracknr%" -T "GENRE=%genre%" -T "COMMENT=EAC FLAC -8" %source%

TOC of the extracted CD

Track | Start | Length | Start sector | End sector

---------------------------------------------------------

1 | 0:00.00 | 8:27.70 | 0 | 38094

2 | 8:27.70 | 7:17.40 | 38095 | 70909

3 | 15:45.35 | 7:21.29 | 70910 | 104013

4 | 23:06.64 | 9:09.22 | 104014 | 145210

5 | 32:16.11 | 7:01.54 | 145211 | 176839

6 | 39:17.65 | 7:34.61 | 176840 | 210950

7 | 46:52.51 | 7:18.23 | 210951 | 243823

8 | 54:10.74 | 6:54.11 | 243824 | 274884

9 | 61:05.10 | 6:38.27 | 274885 | 304761

10 | 67:43.37 | 8:10.16 | 304762 | 341527

Track 1

Filename C:VA - Goa Sun Vol.2 (GOA Records 2013)CD11. Soulearth – Ritual de Cura.wav

Pre-gap length 0:00:02.00

Peak level 99.4 %

Extraction speed 2.7 X

Track quality 99.9 %

Test CRC B9A41654

Copy CRC B9A41654

Track not present in AccurateRip

Copy OK

Track 2

Filename C:VA - Goa Sun Vol.2 (GOA Records 2013)CD12. Dreads Control – A New Time.wav

Peak level 99.4 %

Extraction speed 3.3 X

Track quality 100.0 %

Test CRC 8BE0BEAD

Copy CRC 8BE0BEAD

Track not present in AccurateRip

Copy OK

Track 3

Filename C:VA - Goa Sun Vol.2 (GOA Records 2013)CD13. Ilai – Never End.wav

Peak level 99.4 %

Extraction speed 3.7 X

Track quality 100.0 %

Test CRC 1EC80B07

Copy CRC 1EC80B07

Track not present in AccurateRip

Copy OK

Track 4

Filename C:VA - Goa Sun Vol.2 (GOA Records 2013)CD14. Pulsar – Good Vibes (Atomic Pulse Rmx.wav

Peak level 99.4 %

Extraction speed 4.1 X

Track quality 100.0 %

Test CRC 4280316D

Copy CRC 4280316D

Track not present in AccurateRip

Copy OK

Track 5

Filename C:VA - Goa Sun Vol.2 (GOA Records 2013)CD15. Hotep – Censored.wav

Peak level 99.4 %

Extraction speed 4.3 X

Track quality 100.0 %

Test CRC BF9C30FA

Copy CRC BF9C30FA

Track not present in AccurateRip

Copy OK

Track 6

Filename C:VA - Goa Sun Vol.2 (GOA Records 2013)CD16. Suria – Space Travel.wav

Peak level 99.4 %

Extraction speed 4.3 X

Track quality 99.9 %

Test CRC E382FFA0

Copy CRC E382FFA0

Track not present in AccurateRip

Copy OK

Track 7

Filename C:VA - Goa Sun Vol.2 (GOA Records 2013)CD17. Attik (Mexico) – Elastic Atmospheres.wav

Peak level 99.4 %

Extraction speed 4.9 X

Track quality 100.0 %

Test CRC A004C85A

Copy CRC A004C85A

Track not present in AccurateRip

Copy OK

Track 8

Filename C:VA - Goa Sun Vol.2 (GOA Records 2013)CD18. Pulsar Thaihanu – Baktun (Original Mix.wav

Peak level 100.0 %

Extraction speed 5.1 X

Track quality 100.0 %

Test CRC 5DA8966C

Copy CRC 5DA8966C

Track not present in AccurateRip

Copy OK

Track 9

Filename C:VA - Goa Sun Vol.2 (GOA Records 2013)CD19. Cosmic Station – Saphire.wav

Peak level 99.4 %

Extraction speed 5.3 X

Track quality 100.0 %

Test CRC 15238F2C

Copy CRC 15238F2C

Track not present in AccurateRip

Copy OK

Track 10

Filename C:VA - Goa Sun Vol.2 (GOA Records 2013)CD110. Siam – Insight Meditation.wav

Peak level 94.4 %

Extraction speed 5.6 X

Track quality 100.0 %

Test CRC A02CFC9A

Copy CRC A02CFC9A

Track not present in AccurateRip

Copy OK

None of the tracks are present in the AccurateRip

No errors occurred

End of status report

CD2


Cue

REM GENRE "Psy-Trance /Full On"

REM DATE 2013

REM DISCID A011C90A

REM COMMENT "ExactAudioCopy v1.0b3"

PERFORMER "Various"

TITLE "Goa Sun vol.2 - CD1"

FILE "01. Soulearth – Ritual de Cura.wav" WAVE

TRACK 01 AUDIO

TITLE "Ritual de Cura"

PERFORMER "Soulearth"

INDEX 01 00:00:00

FILE "02. Dreads Control – A New Time.wav" WAVE

TRACK 02 AUDIO

TITLE "A New Time"

PERFORMER "Dreads Control"

INDEX 01 00:00:00

FILE "03. Ilai – Never End.wav" WAVE

TRACK 03 AUDIO

TITLE "Never End"

PERFORMER "Ilai"

INDEX 01 00:00:00

FILE "04. Pulsar – Good Vibes (Atomic Pulse Rmx.wav" WAVE

TRACK 04 AUDIO

TITLE "Good Vibes (Atomic Pulse Rmx"

PERFORMER "Pulsar"

INDEX 01 00:00:00

FILE "05. Hotep – Censored.wav" WAVE

TRACK 05 AUDIO

TITLE "Censored"

PERFORMER "Hotep"

INDEX 01 00:00:00

FILE "06. Suria – Space Travel.wav" WAVE

TRACK 06 AUDIO

TITLE "Space Travel"

PERFORMER "Suria"

INDEX 01 00:00:00

FILE "07. Attik (Mexico) – Elastic Atmospheres.wav" WAVE

TRACK 07 AUDIO

TITLE "Elastic Atmospheres"

PERFORMER "Attik (Mexico)"

INDEX 01 00:00:00

FILE "08. Pulsar Thaihanu – Baktun (Original Mix.wav" WAVE

TRACK 08 AUDIO

TITLE "Baktun (Original Mix"

PERFORMER "Pulsar Thaihanu"

INDEX 01 00:00:00

FILE "09. Cosmic Station – Saphire.wav" WAVE

TRACK 09 AUDIO

TITLE "Saphire"

PERFORMER "Cosmic Station"

INDEX 01 00:00:00

FILE "10. Siam – Insight Meditation.wav" WAVE

TRACK 10 AUDIO

TITLE "Insight Meditation"

PERFORMER "Siam"

INDEX 01 00:00:00

CD2


http://4.firepic.org/4/images/2013-05/18/bgto1sxsd2hl.gif
Скриншоты VA - Goa Sun - Vol.2 (2013) FLAC #0
Похожие файлы
Загрузка / Обновление
Категория Музыка / Мультимедиа RSS лента
Добавлен (4 года, 1 месяц назад)
Просмотров 136 раз (a)
Взят 1 раз (a)
Файлы 24, 998.53 MB (1 047 034 076 байт)
Раздал ViKa  (Искать торренты)
Участники
Скачивают (качают): 0 (1), Завершено: 0 (6)
Просматривают

« Рок Нашествие / Рок / 2013 -†- ¿? -†- VA - Royal Flush - Vol.5 (2013) FLAC »

:: Список Комментариев
Нет комментариев.

 Нет комментариев

Поблагодарите нас, взамен, мы будем заливать еще больше раздач!


Счетчики
Рейтинг@Mail.ru Яндекс.Метрика


Поделитесь в социальных сетях


Быстрый Поиск





Спасибо Вам
Мы благодарны этим людям в поддержке сайта:
oiproger
Попади и ты в этот блок, поставь оценку 5 и получи 300 MB к отдаче:
Войти на сайт сейчас.

Правообладателям
По всем вопросам сотрудничества, удаления авторских файлов "пачкой", просьба отписаться по адреcу:
abuse@muz-tracker.net

Наши группы в VK, OK