Самые активные релизы за неделю
Музыка / Мультимедиа Картинки / Фото Сериалы Фильмы / AVI / MKV / MP4 Фильмы / HD / Full HD / Blu-Ray / 2K / 4K
Top-600 Best Blues & Rock - Collection ( Blues / 2012 )
  • Top-600 Best Blues & Rock - Collection ( Blues / 2012 )
  • Популярные новинки (№7) ( Поп  / 2017 )
  • Reggae Sound System ( Reggae / 2017 )
  • Выше облаков. Русский сборник поп музыки ( Поп / 2017 )
  • VA - PRODJ SUMMER RHTYM [2017 / MP3 / 320] [Dance]
  • Ruben De Ronde & Rodg - Togetherr ( Trance / 2017 )
  • Время-времечко. Супер сборник русского шансона ( Шансон / 2017 )
  • Relaxing Instrumental Jazz Music ( Jazz / 2017 )
  • Best Chillout Vol.30 ( Chillout / 2017 )
  • Woody Herman - Verve Jazz Masters 54 (1996) MP3
  • Armin van Buuren - A state of Trance (818) ( Trance / 2017 )
  • / Dance / 2017


Популярные персоны кино из торрент-раздачи

:: Детали раздачи
Раздача является мультитрекерной — учтите, количество раздающих не будет совпадать с количеством участников на сайте (скачивание на клиентской стороне зависит от настроек µTorrent клиент программы, настройки -> Включить DHT, Обмен пирами и Поиск лок-х пиров).
Если висит надпись, пиры по нулям - не бойтесь, возможность скачать повторно раздачу - есть. Попробуйте, в случае отказа - прокоментируйте или нажмите на "Позвать скачавших".
Данная раздача является свободной — учитывается только количество отданного, количество скачанного не фиксируется.

Сокровище нации: Дилогия / National Treasure: Dilogy (2004-2007) BDRip 1080p Золотой торрент

Скачать Скачать .torrent файл (основная ссылка для скачивания файла)
Смотреть / Слушать онлайн просмотр (ссылка для просмотра файла через плагин 'Torrent Stream')
Magnet-ссылка (альтернативная ссылка для скачивания файла)
Теги / Метки боевик, триллер, детектив, приключения, 2004
Описание
Сокровище нации: Дилогия / National Treasure: Dilogy (2004-2007) BDRip 1080p

Жанр: боевик, триллер, детектив, приключения
Продолжительность: 02:11:04 | 02:04:32

Год выхода: 2004/2007

Режиссер: Джон Тёртелтауб / Jon Turteltaub




Сокровище нации / National Treasure (2004) BDRip 1080p

Общее

Уникальный идентификатор : 185023447141619298813877300735666383056 (0x8B32383FFCED6397AFA5FDDA886968D0)

Полное имя : Сокровище нации. ДилогияСокровище нации.2004.BDRip.1080p.Rus.Eng.mkv

Формат : Matroska

Версия формата : Version 4 / Version 2

Размер файла : 7,76 Гбайт

Продолжительность : 2 ч. 11 м.

Общий поток : 8476 Кбит/сек

Название фильма : Сокровище нации.2004

Дата кодирования : UTC 2013-01-24 16:09:12

Программа кодирования : mkvmerge v6.0.0 ('Coming Up For Air') built on Jan 20 2013 09:52:00

Библиотека кодирования : libebml v1.3.0 + libmatroska v1.4.0


Видео

Идентификатор : 1

Формат : AVC

Формат/Информация : Advanced Video Codec

Профиль формата : High@L4.1

Параметр CABAC формата : Да

Параметр ReFrames формата : 5 кадров

Идентификатор кодека : V_MPEG4/ISO/AVC

Продолжительность : 2 ч. 11 м.

Битрейт : 7198 Кбит/сек

Ширина : 1920 пикселей

Высота : 800 пикселей

Соотношение сторон : 2,40:1

Режим частоты кадров : Постоянный

Частота кадров : 23,976 кадра/сек

Цветовое пространство : YUV

Субдискретизация насыщенности : 4:2:0

Битовая глубина : 8 бит

Тип развёртки : Прогрессивная

Бит/(Пиксели*Кадры) : 0.195

Размер потока : 6,43 Гбайт (83%)

Заголовок : Rip by Boriy

Библиотека кодирования : x264 core 129 r2245 bc13772

Настройки программы : cabac=1 / ref=5 / deblock=1:0:0 / analyse=0x3:0x113 / me=umh / subme=10 / psy=1 / psy_rd=1.00:0.10 / mixed_ref=1 / me_range=32 / chroma_me=1 / trellis=2 / 8x8dct=1 / cqm=0 / deadzone=21,11 / fast_pskip=0 / chroma_qp_offset=-2 / threads=12 / lookahead_threads=2 / sliced_threads=0 / nr=0 / decimate=0 / interlaced=0 / bluray_compat=0 / constrained_intra=0 / bframes=5 / b_pyramid=2 / b_adapt=2 / b_bias=0 / direct=3 / weightb=1 / open_gop=0 / weightp=2 / keyint=240 / keyint_min=23 / scenecut=40 / intra_refresh=0 / rc=2pass / mbtree=0 / bitrate=7198 / ratetol=1.0 / qcomp=0.60 / qpmin=0 / qpmax=69 / qpstep=4 / cplxblur=20.0 / qblur=0.5 / ip_ratio=1.40 / pb_ratio=1.30 / aq=1:0.80

Язык : English

Default : Да

Forced : Нет


Аудио #1

Идентификатор : 2

Формат : AC-3

Формат/Информация : Audio Coding 3

Расширение режима : CM (complete main)

Параметр Endianness формата : Big

Идентификатор кодека : A_AC3

Продолжительность : 2 ч. 11 м.

Вид битрейта : Постоянный

Битрейт : 640 Кбит/сек

Каналы : 6 каналов

Расположение каналов : Front: L C R, Side: L R, LFE

Частота : 48,0 КГц

Битовая глубина : 16 бит

Метод сжатия : С потерями

Размер потока : 600 Мбайт (8%)

Заголовок : Дубляж

Язык : Russian

Default : Да

Forced : Нет


Аудио #2

Идентификатор : 3

Формат : AC-3

Формат/Информация : Audio Coding 3

Расширение режима : CM (complete main)

Параметр Endianness формата : Big

Идентификатор кодека : A_AC3

Продолжительность : 2 ч. 11 м.

Вид битрейта : Постоянный

Битрейт : 640 Кбит/сек

Каналы : 6 каналов

Расположение каналов : Front: L C R, Side: L R, LFE

Частота : 48,0 КГц

Битовая глубина : 16 бит

Метод сжатия : С потерями

Размер потока : 600 Мбайт (8%)

Заголовок : Оригинал

Язык : English

Default : Нет

Forced : Нет


Текст #1

Идентификатор : 4

Формат : UTF-8

Идентификатор кодека : S_TEXT/UTF8

Идентификатор кодека/Информация : UTF-8 Plain Text

Язык : Russian

Default : Нет

Forced : Нет


Текст #2

Идентификатор : 5

Формат : UTF-8

Идентификатор кодека : S_TEXT/UTF8

Идентификатор кодека/Информация : UTF-8 Plain Text

Язык : English

Default : Нет

Forced : Нет


Меню

00:00:00.000 : :Chapter 1

00:06:36.229 : :Chapter 2

00:22:20.339 : :Chapter 3

00:28:49.269 : :Chapter 4

00:31:15.290 : :Chapter 5

00:35:44.517 : :Chapter 6

00:45:52.666 : :Chapter 7

00:54:27.973 : :Chapter 8

01:01:07.705 : :Chapter 9

01:07:02.685 : :Chapter 10

01:16:54.610 : :Chapter 11

01:24:06.458 : :Chapter 12

01:28:21.671 : :Chapter 13

01:34:20.821 : :Chapter 14

01:38:31.989 : :Chapter 15

01:49:42.576 : :Chapter 16

01:53:26.382 : :Chapter 17

01:57:22.452 : :Chapter 18

02:01:43.379 : :Chapter 19

02:11:04.231 : :Chapter 20
Сокровище нации: Книга Тайн / National Treasure: Book of Secrets (2007) BDRip 1080p

Общее

Уникальный идентификатор : 229256267657762740138475783777848052286 (0xAC7926AD50410CF38852ADE460EECA3E)

Полное имя : Сокровище нации. ДилогияСокровище нации. Книга Тайн.2007.BDRip.1080p.Rus.Eng.mkv

Формат : Matroska

Версия формата : Version 4 / Version 2

Размер файла : 7,76 Гбайт

Продолжительность : 2 ч. 4 м.

Общий поток : 8922 Кбит/сек

Название фильма : Сокровище нации: Книга Тайн.2007

Дата кодирования : UTC 2013-01-24 16:20:19

Программа кодирования : mkvmerge v6.0.0 ('Coming Up For Air') built on Jan 20 2013 09:52:00

Библиотека кодирования : libebml v1.3.0 + libmatroska v1.4.0


Видео

Идентификатор : 1

Формат : AVC

Формат/Информация : Advanced Video Codec

Профиль формата : High@L4.1

Параметр CABAC формата : Да

Параметр ReFrames формата : 5 кадров

Идентификатор кодека : V_MPEG4/ISO/AVC

Продолжительность : 2 ч. 4 м.

Битрейт : 7642 Кбит/сек

Ширина : 1920 пикселей

Высота : 800 пикселей

Соотношение сторон : 2,40:1

Режим частоты кадров : Постоянный

Частота кадров : 23,976 кадра/сек

Цветовое пространство : YUV

Субдискретизация насыщенности : 4:2:0

Битовая глубина : 8 бит

Тип развёртки : Прогрессивная

Бит/(Пиксели*Кадры) : 0.208

Размер потока : 6,49 Гбайт (84%)

Заголовок : Rip by Boriy

Библиотека кодирования : x264 core 129 r2245 bc13772

Настройки программы : cabac=1 / ref=5 / deblock=1:0:0 / analyse=0x3:0x113 / me=umh / subme=10 / psy=1 / psy_rd=1.00:0.10 / mixed_ref=1 / me_range=32 / chroma_me=1 / trellis=2 / 8x8dct=1 / cqm=0 / deadzone=21,11 / fast_pskip=0 / chroma_qp_offset=-2 / threads=12 / lookahead_threads=2 / sliced_threads=0 / nr=0 / decimate=0 / interlaced=0 / bluray_compat=0 / constrained_intra=0 / bframes=5 / b_pyramid=2 / b_adapt=2 / b_bias=0 / direct=3 / weightb=1 / open_gop=0 / weightp=2 / keyint=240 / keyint_min=23 / scenecut=40 / intra_refresh=0 / rc=2pass / mbtree=0 / bitrate=7642 / ratetol=1.0 / qcomp=0.60 / qpmin=0 / qpmax=69 / qpstep=4 / cplxblur=20.0 / qblur=0.5 / ip_ratio=1.40 / pb_ratio=1.30 / aq=1:0.80

Язык : English

Default : Да

Forced : Нет


Аудио #1

Идентификатор : 2

Формат : AC-3

Формат/Информация : Audio Coding 3

Расширение режима : CM (complete main)

Параметр Endianness формата : Big

Идентификатор кодека : A_AC3

Продолжительность : 2 ч. 4 м.

Вид битрейта : Постоянный

Битрейт : 640 Кбит/сек

Каналы : 6 каналов

Расположение каналов : Front: L C R, Side: L R, LFE

Частота : 48,0 КГц

Битовая глубина : 16 бит

Метод сжатия : С потерями

Размер потока : 570 Мбайт (7%)

Заголовок : Дубляж

Язык : Russian

Default : Да

Forced : Нет


Аудио #2

Идентификатор : 3

Формат : AC-3

Формат/Информация : Audio Coding 3

Расширение режима : CM (complete main)

Параметр Endianness формата : Big

Идентификатор кодека : A_AC3

Продолжительность : 2 ч. 4 м.

Вид битрейта : Постоянный

Битрейт : 640 Кбит/сек

Каналы : 6 каналов

Расположение каналов : Front: L C R, Side: L R, LFE

Частота : 48,0 КГц

Битовая глубина : 16 бит

Метод сжатия : С потерями

Размер потока : 570 Мбайт (7%)

Заголовок : Оригинал

Язык : English

Default : Нет

Forced : Нет


Текст #1

Идентификатор : 4

Формат : UTF-8

Идентификатор кодека : S_TEXT/UTF8

Идентификатор кодека/Информация : UTF-8 Plain Text

Заголовок : Forced

Язык : Russian

Default : Да

Forced : Да


Текст #2

Идентификатор : 5

Формат : UTF-8

Идентификатор кодека : S_TEXT/UTF8

Идентификатор кодека/Информация : UTF-8 Plain Text

Заголовок : Full

Язык : Russian

Default : Нет

Forced : Нет


Текст #3

Идентификатор : 6

Формат : UTF-8

Идентификатор кодека : S_TEXT/UTF8

Идентификатор кодека/Информация : UTF-8 Plain Text

Заголовок : Full

Язык : English

Default : Нет

Forced : Нет


Меню

00:00:00.000 : :Chapter 1

00:04:59.340 : :Chapter 2

00:08:27.215 : :Chapter 3

00:16:55.723 : :Chapter 4

00:22:01.945 : :Chapter 5

00:26:03.395 : :Chapter 6

00:36:47.038 : :Chapter 7

00:43:02.913 : :Chapter 8

00:50:14.011 : :Chapter 9

00:55:27.907 : :Chapter 10

01:00:01.389 : :Chapter 11

01:11:22.987 : :Chapter 12

01:20:14.017 : :Chapter 13

01:24:42.744 : :Chapter 14

01:30:41.269 : :Chapter 15

01:40:07.334 : :Chapter 16

01:47:17.889 : :Chapter 17

01:57:20.533 : :Chapter 18

02:04:32.214 : :Chapter 19
Оповестить о раздаче Включить оповещение на почту ( о новом торрент-файле ), когда появится раздача с похожим названием: Сокровище нации: Дилогия, National Treasure: Dilogy

E-Mail адрес:
Внимание: Если вы не авторизованы, то для вас будет создана временная учетная запись (доступ к аккаунту будет прикреплен в письме).
Похожие файлы
Загрузка / Обновление
Категория Фильмы / HD / Full HD / Blu-Ray / 2K / 4K RSS лента
Добавлен (4 года, 1 месяц назад)
Просмотров 113 раз (a)
Взят 0 раз (a)
Файлы 2, 15.52 GB (16 666 528 059 байт)
Оценка
IMDB: 6.9, 227,885 голоса (ов), Кинопоиск: 7.755, 71595 голоса (ов)
Раздал ViKa  (Искать торренты)
Участники
Раздают (отдают): 0 (22), Скачивают (качают): 0 (3), Завершено: 0 (243)
Просматривают

« Ужас Амитивилля / The Amityville Horror (2005) BDRip 1080p -†- ¿? -†- Нью-Джек-Сити / New Jack City (1991) BDRip 720p jn balshik »

:: Список Комментариев
Нет комментариев.

 Нет комментариев

Поблагодарите нас, взамен, мы будем заливать еще больше раздач!


Счетчики
Рейтинг@Mail.ru Яндекс.Метрика


Поделитесь в социальных сетях


Быстрый Поиск





Спасибо Вам
Мы благодарны этим людям в поддержке сайта:
oiproger
Попади и ты в этот блок, поставь оценку 5 и получи 300 MB к отдаче:
Войти на сайт сейчас.

Правообладателям
По всем вопросам сотрудничества, удаления авторских файлов "пачкой", просьба отписаться по адреcу:
abuse@muz-tracker.net

Наши группы в VK, OK