Самые активные релизы за неделю
Музыка / Мультимедиа Сериалы Фильмы / AVI
Michael Jackson - King of Pop [2CD Deluxe UK Edition] (2015) MP3
  • Michael Jackson - King of Pop [2CD Deluxe UK Edition] (2015) MP3
  • VA - I Love Music! - Hard Rock Edition Vol.31 [2017 / MP3 / 320] [Hard Rock]
  • VA - Cold Emotions Melancholic Piano Melodies Collection (2014) MP3
  • VA - Kiss FM UA - TOP 40 PARADE - 05 February  [2017 / MP3 / 320] [Club]
  • VA - Полный отрыв. Зимние хиты (2016) MP3
  • VA - Trance In Motion Volume 209 (Mixed by Emil Sorous) [2017 / MP3 / 320] [Trance]
  • VA - Retro Party. Favorite Hits 80-90's [2017 / MP3 / 320] [Disco]
  • Сборник - Зимняя 100-ка хитовая (2014) MP3
  • VA - Kiss FM Fresh Top 40 - 4 Februarie 2017 [2017 / MP3 / 320] [Dance]
  • Evanescence - Lost Whispers [2016 / MP3 / 320] [Alternative]
  • Schiller [6 CD] (1999-2008) APE
  • VA - Top 100 Beatport Downloads January [2017 / MP3 / 320] [House]

:: Детали раздачи
Раздача является мультитрекерной — учтите, количество раздающих не будет совпадать с количеством участников на сайте (скачивание на клиентской стороне зависит от настроек µTorrent клиент программы, настройки -> Включить DHT, Обмен пирами и Поиск лок-х пиров).
Если висит надпись, пиры по нулям - не бойтесь, возможность скачать повторно раздачу - есть. Попробуйте, в случае отказа - прокоментируйте или нажмите на "Позвать скачавших".
Данная раздача является свободной — учитывается только количество отданного, количество скачанного не фиксируется.

Американский пирог: Трилогия / American Pie (1999, 2001, 2003) BDRip 720p Золотой торрент

Скачать Скачать .torrent файл
Смотреть / Слушать онлайн просмотр
Magnet-ссылка
Теги / Метки комедия, 1999
Описание

Американский пирог (1999) BDRip 720p от NOLIMITS-TEAM

Format : Matroska

Format version : Version 2

File size : 2.18 GiB

Duration : 1h 35mn

Overall bit rate : 3 256 Kbps

Movie name : Rip by mitrian (NOLIMITS-TEAM.RU)

Encoded date : UTC 2012-05-06 15:48:03

Writing application : mkvmerge v5.5.0 ('Healer') built on Apr 6 2012 21:43:24

Writing library : libebml v1.2.3 + libmatroska v1.3.0


Video

ID : 1

Format : AVC

Format/Info : Advanced Video Codec

Format profile : High@L4.1

Format settings, CABAC : Yes

Format settings, ReFrames : 9 frames

Codec ID : V_MPEG4/ISO/AVC

Duration : 1h 35mn

Bit rate : 2 875 Kbps

Width : 1 280 pixels

Height : 688 pixels

Display aspect ratio : 1.85:1

Original display aspect ratio : 1.85:1

Frame rate : 23.976 fps

Color space : YUV

Chroma subsampling : 4:2:0

Bit depth : 8 bits

Scan type : Progressive

Bits/(Pixel*Frame) : 0.136

Stream size : 1.88 GiB (86%)

Title : Американский пирог (1999) BDRip 720p от NOLIMITS-TEAM

Writing library : x264 core 124 r2197 69a0443

Encoding settings : cabac=1 / ref=9 / deblock=1:-3:-2 / analyse=0x3:0x133 / me=umh / subme=10 / psy=1 / psy_rd=1.00:0.10 / mixed_ref=1 / me_range=32 / chroma_me=1 / trellis=2 / 8x8dct=1 / cqm=0 / deadzone=21,11 / fast_pskip=0 / chroma_qp_offset=-3 / threads=6 / sliced_threads=0 / slices=4 / nr=0 / decimate=0 / interlaced=0 / bluray_compat=0 / constrained_intra=0 / bframes=5 / b_pyramid=2 / b_adapt=2 / b_bias=0 / direct=3 / weightb=1 / open_gop=0 / weightp=2 / keyint=240 / keyint_min=24 / scenecut=40 / intra_refresh=0 / rc_lookahead=60 / rc=2pass / mbtree=1 / bitrate=2875 / ratetol=2.0 / qcomp=0.60 / qpmin=0 / qpmax=51 / qpstep=4 / cplxblur=20.0 / qblur=0.5 / ip_ratio=1.40 / aq=1:1.00

Language : English

Default : Yes

Forced : No


Audio

ID : 2

Format : AC-3

Format/Info : Audio Coding 3

Mode extension : CM (complete main)

Format settings, Endianness : Big

Codec ID : A_AC3

Duration : 1h 35mn

Bit rate mode : Constant

Bit rate : 384 Kbps

Channel(s) : 6 channels

Channel positions : Front: L C R, Side: L R, LFE

Sampling rate : 48.0 KHz

Bit depth : 16 bits

Compression mode : Lossy

Stream size : 263 MiB (12%)

Title : Русский

Default : Yes

Forced : No


Menu

00:00:00.000 : en:00:00:00.000

00:01:38.932 : en:00:01:38.932

00:04:00.323 : en:00:04:00.323

00:06:19.128 : en:00:06:19.128

00:12:19.780 : en:00:12:19.780

00:16:48.549 : en:00:16:48.549

00:24:08.238 : en:00:24:08.238

00:27:53.755 : en:00:27:53.755

00:31:33.057 : en:00:31:33.057

00:35:52.441 : en:00:35:52.441

00:42:46.689 : en:00:42:46.689

01:00:11.399 : en:01:00:11.399

01:03:41.359 : en:01:03:41.359

01:07:41.724 : en:01:07:41.724

01:11:02.383 : en:01:11:02.383

01:16:47.436 : en:01:16:47.436

01:27:13.770 : en:01:27:13.770

01:31:27.440 : en:01:31:27.440


Скриншоты



Американский пирог 2 (2001) BDRip 720p от NOLIMITS-TEAM

Format : Matroska

Format version : Version 2

File size : 2.18 GiB

Duration : 1h 50mn

Overall bit rate : 2 815 Kbps

Movie name : Rip by mitrian (NOLIMITS-TEAM.RU)

Encoded date : UTC 2012-05-06 16:04:04

Writing application : mkvmerge v5.5.0 ('Healer') built on Apr 6 2012 21:43:24

Writing library : libebml v1.2.3 + libmatroska v1.3.0


Video

ID : 1

Format : AVC

Format/Info : Advanced Video Codec

Format profile : High@L4.1

Format settings, CABAC : Yes

Format settings, ReFrames : 9 frames

Codec ID : V_MPEG4/ISO/AVC

Duration : 1h 50mn

Bit rate : 2 432 Kbps

Width : 1 280 pixels

Height : 688 pixels

Display aspect ratio : 1.85:1

Original display aspect ratio : 1.85:1

Frame rate : 23.976 fps

Color space : YUV

Chroma subsampling : 4:2:0

Bit depth : 8 bits

Scan type : Progressive

Bits/(Pixel*Frame) : 0.115

Stream size : 1.84 GiB (84%)

Title : Американский пирог 2 (2001) BDRip 720p от NOLIMITS-TEAM

Writing library : x264 core 124 r2197 69a0443

Encoding settings : cabac=1 / ref=9 / deblock=1:-3:-2 / analyse=0x3:0x133 / me=umh / subme=10 / psy=1 / psy_rd=1.00:0.10 / mixed_ref=1 / me_range=32 / chroma_me=1 / trellis=2 / 8x8dct=1 / cqm=0 / deadzone=21,11 / fast_pskip=0 / chroma_qp_offset=-3 / threads=6 / sliced_threads=0 / slices=4 / nr=0 / decimate=0 / interlaced=0 / bluray_compat=0 / constrained_intra=0 / bframes=5 / b_pyramid=2 / b_adapt=2 / b_bias=0 / direct=3 / weightb=1 / open_gop=0 / weightp=2 / keyint=240 / keyint_min=24 / scenecut=40 / intra_refresh=0 / rc_lookahead=60 / rc=2pass / mbtree=1 / bitrate=2432 / ratetol=2.0 / qcomp=0.60 / qpmin=0 / qpmax=51 / qpstep=4 / cplxblur=20.0 / qblur=0.5 / ip_ratio=1.40 / aq=1:1.00

Language : English

Default : Yes

Forced : No


Audio

ID : 2

Format : AC-3

Format/Info : Audio Coding 3

Mode extension : CM (complete main)

Format settings, Endianness : Big

Codec ID : A_AC3

Duration : 1h 50mn

Bit rate mode : Constant

Bit rate : 384 Kbps

Channel(s) : 6 channels

Channel positions : Front: L C R, Side: L R, LFE

Sampling rate : 48.0 KHz

Bit depth : 16 bits

Compression mode : Lossy

Stream size : 304 MiB (14%)

Title : Русский

Default : Yes

Forced : No


Menu

00:00:00.000 : en:00:00:00.000

00:06:15.291 : en:00:06:15.291

00:08:33.930 : en:00:08:33.930

00:15:53.661 : en:00:15:53.661

00:20:22.012 : en:00:20:22.012

00:22:41.818 : en:00:22:41.818

00:27:22.223 : en:00:27:22.223

00:34:31.277 : en:00:34:31.277

00:38:09.203 : en:00:38:09.203

00:41:33.407 : en:00:41:33.407

00:44:11.106 : en:00:44:11.106

00:57:56.139 : en:00:57:56.139

01:05:34.305 : en:01:05:34.305

01:14:42.227 : en:01:14:42.227

01:18:09.935 : en:01:18:09.935

01:24:02.829 : en:01:24:02.829

01:28:26.301 : en:01:28:26.301

01:36:27.448 : en:01:36:27.448

01:41:07.603 : en:01:41:07.603

01:44:04.613 : en:01:44:04.613


Скриншоты



Американский пирог 3 (2003) BDRip 720p от NOLIMITS-TEAM

Format : Matroska

Format version : Version 2

File size : 2.18 GiB

Duration : 1h 43mn

Overall bit rate : 3 013 Kbps

Movie name : Rip by mitrian (NOLIMITS-TEAM.RU)

Encoded date : UTC 2012-05-06 16:18:42

Writing application : mkvmerge v5.5.0 ('Healer') built on Apr 6 2012 21:43:24

Writing library : libebml v1.2.3 + libmatroska v1.3.0


Video

ID : 1

Format : AVC

Format/Info : Advanced Video Codec

Format profile : High@L4.1

Format settings, CABAC : Yes

Format settings, ReFrames : 12 frames

Codec ID : V_MPEG4/ISO/AVC

Duration : 1h 43mn

Bit rate : 2 631 Kbps

Width : 1 280 pixels

Height : 544 pixels

Display aspect ratio : 2.35:1

Original display aspect ratio : 2.35:1

Frame rate : 23.976 fps

Color space : YUV

Chroma subsampling : 4:2:0

Bit depth : 8 bits

Scan type : Progressive

Bits/(Pixel*Frame) : 0.158

Stream size : 1.86 GiB (85%)

Title : Американский пирог 3 (2003) BDRip 720p от NOLIMITS-TEAM

Writing library : x264 core 124 r2197 69a0443

Encoding settings : cabac=1 / ref=12 / deblock=1:-3:-2 / analyse=0x3:0x133 / me=umh / subme=10 / psy=1 / psy_rd=1.00:0.10 / mixed_ref=1 / me_range=32 / chroma_me=1 / trellis=2 / 8x8dct=1 / cqm=0 / deadzone=21,11 / fast_pskip=0 / chroma_qp_offset=-3 / threads=6 / sliced_threads=0 / slices=4 / nr=0 / decimate=0 / interlaced=0 / bluray_compat=0 / constrained_intra=0 / bframes=5 / b_pyramid=2 / b_adapt=2 / b_bias=0 / direct=3 / weightb=1 / open_gop=0 / weightp=2 / keyint=240 / keyint_min=24 / scenecut=40 / intra_refresh=0 / rc_lookahead=60 / rc=2pass / mbtree=1 / bitrate=2631 / ratetol=2.0 / qcomp=0.60 / qpmin=0 / qpmax=51 / qpstep=4 / cplxblur=20.0 / qblur=0.5 / ip_ratio=1.40 / aq=1:1.00

Language : English

Default : Yes

Forced : No


Audio

ID : 2

Format : AC-3

Format/Info : Audio Coding 3

Mode extension : CM (complete main)

Format settings, Endianness : Big

Codec ID : A_AC3

Duration : 1h 43mn

Bit rate mode : Constant

Bit rate : 384 Kbps

Channel(s) : 6 channels

Channel positions : Front: L C R, Side: L R, LFE

Sampling rate : 48.0 KHz

Bit depth : 16 bits

Compression mode : Lossy

Stream size : 284 MiB (13%)

Title : Русский

Default : Yes

Forced : No


Menu

00:00:00.000 : en:00:00:00.000

00:01:38.932 : en:00:01:38.932

00:04:00.323 : en:00:04:00.323

00:06:19.128 : en:00:06:19.128

00:12:19.780 : en:00:12:19.780

00:16:48.549 : en:00:16:48.549

00:24:08.238 : en:00:24:08.238

00:27:53.755 : en:00:27:53.755

00:31:33.057 : en:00:31:33.057

00:35:52.441 : en:00:35:52.441

00:42:46.689 : en:00:42:46.689

01:00:11.399 : en:01:00:11.399

01:03:41.359 : en:01:03:41.359

01:07:41.724 : en:01:07:41.724

01:11:02.383 : en:01:11:02.383

01:16:47.436 : en:01:16:47.436

01:27:13.770 : en:01:27:13.770

01:31:27.440 : en:01:31:27.440

01:38:54.440 : en:01:38:54.440

01:45:51.445 : en:01:45:51.445


Скриншоты



Автор рипа http://s002.youpic.su/pictures/1333569600/c64c6f114c57d49e0b4d81c8f199f136.gif mitrian
Оповестить о раздаче Включить оповещение на почту ( о новом торрент-файле ), когда появится раздача с похожим названием: Американский пирог: Трилогия, American Pie

E-Mail адрес:
Внимание: Если вы не авторизованы, то для вас будет создана временная учетная запись (доступ к аккаунту будет прикреплен в письме).
Похожие файлы
Загрузка / Обновление
Категория Фильмы / HDTV / HD / Blu-Ray RSS лента
Добавлен (3 года, 9 месяцев назад)
Просмотров 63 раз (a)
Взят 0 раз (a)
Файлы 18, 10.72 GB (11 511 588 197 байт)
Оценка
IMDB: 7.0, 282,774 голоса (ов), Кинопоиск: 7.297, 66748 голоса (ов)
Раздал ViKa  (Искать торренты)
Участники
Скачивают (качают): 0 (1), Завершено: 0 (1)
Просматривают

« Американский пирог: Трилогия / American Pie (1999, 2001, 2003) BDRip 1080p -†- ¿? -†- Сохраняя веру / Keeping the Faith (2000) BDRip 1080p | P »

:: Список Комментариев
Нет комментариев.

 Нет комментариев

Счетчики
Рейтинг@Mail.ru


Поделитесь в социальных сетях


Быстрый Поиск





Спасибо Вам
Мы благодарны этим людям в поддержке сайта:
valmit2011, MMMNNNBBB
Попади и ты в этот блок, поставь оценку 5 и получи 300 MB к отдаче:
Войти на сайт сейчас.

Правообладателям
По всем вопросам сотрудничества, удаления авторских файлов "пачкой", просьба отписаться по адреcу:
abuse@muz-tracker.net

Наши группы в VK, OK