Самые активные релизы за неделю
Музыка / Мультимедиа Картинки / Фото Сериалы Фильмы / AVI / MKV / MP4 Фильмы / HD / Full HD / Blu-Ray / 2K / 4K
Top-600 Best Blues & Rock - Collection ( Blues / 2012 )
  • Top-600 Best Blues & Rock - Collection ( Blues / 2012 )
  • Выше облаков. Русский сборник поп музыки ( Поп / 2017 )
  • Популярные новинки (№7) ( Поп  / 2017 )
  • / Dance / 2017
  • Время-времечко. Супер сборник русского шансона ( Шансон / 2017 )
  • Reggae Sound System ( Reggae / 2017 )
  • Best Chillout Vol.30 ( Chillout / 2017 )
  • Relaxing Instrumental Jazz Music ( Jazz / 2017 )
  • Woody Herman - Verve Jazz Masters 54 (1996) MP3
  • Magic Island - Music For Balearic People (Vol.8, Mixed By Roger Shah) (2CD) ( Trance / 2017 )
  • Hardsyle Music For Sports Games ( Club / 2017 )
  • NME Hardstyle: Energy Hit Music Only ( Club / 2017 )


Популярные персоны кино из торрент-раздачи

:: Детали раздачи
Раздача является мультитрекерной — учтите, количество раздающих не будет совпадать с количеством участников на сайте (скачивание на клиентской стороне зависит от настроек µTorrent клиент программы, настройки -> Включить DHT, Обмен пирами и Поиск лок-х пиров).
Если висит надпись, пиры по нулям - не бойтесь, возможность скачать повторно раздачу - есть. Попробуйте, в случае отказа - прокоментируйте или нажмите на "Позвать скачавших".
Данная раздача является свободной — учитывается только количество отданного, количество скачанного не фиксируется.

Американский пирог: Трилогия / American Pie (1999, 2001, 2003) BDRip 1080p Золотой торрент

Скачать Скачать .torrent файл (основная ссылка для скачивания файла)
Смотреть / Слушать онлайн просмотр (ссылка для просмотра файла через плагин 'Torrent Stream')
Magnet-ссылка (альтернативная ссылка для скачивания файла)
Теги / Метки комедия, 1999
Описание
Американский пирог: Трилогия / American Pie (1999, 2001, 2003) BDRip 1080p
Американский пирог (1999) BDRip 1080p от NOLIMITS-TEAM

Format : Matroska

Format version : Version 2

File size : 4.37 GiB

Duration : 1h 35mn

Overall bit rate : 6 541 Kbps

Movie name : Rip by mitrian (NOLIMITS-TEAM.RU)

Encoded date : UTC 2012-05-04 15:32:52

Writing application : mkvmerge v5.5.0 ('Healer') built on Apr 6 2012 21:43:24

Writing library : libebml v1.2.3 + libmatroska v1.3.0


Video

ID : 1

Format : AVC

Format/Info : Advanced Video Codec

Format profile : High@L4.1

Format settings, CABAC : Yes

Format settings, ReFrames : 4 frames

Codec ID : V_MPEG4/ISO/AVC

Duration : 1h 35mn

Bit rate : 6 162 Kbps

Width : 1 920 pixels

Height : 1 024 pixels

Display aspect ratio : 1.85:1

Original display aspect ratio : 1.85:1

Frame rate : 23.976 fps

Color space : YUV

Chroma subsampling : 4:2:0

Bit depth : 8 bits

Scan type : Progressive

Bits/(Pixel*Frame) : 0.131

Stream size : 4.03 GiB (92%)

Title : Американский пирог (1999) BDRip 1080p от NOLIMITS-TEAM

Writing library : x264 core 124 r2197 69a0443

Encoding settings : cabac=1 / ref=4 / deblock=1:-3:-2 / analyse=0x3:0x133 / me=umh / subme=10 / psy=1 / psy_rd=1.00:0.10 / mixed_ref=1 / me_range=32 / chroma_me=1 / trellis=2 / 8x8dct=1 / cqm=0 / deadzone=21,11 / fast_pskip=0 / chroma_qp_offset=-3 / threads=6 / sliced_threads=0 / slices=4 / nr=0 / decimate=0 / interlaced=0 / bluray_compat=0 / constrained_intra=0 / bframes=5 / b_pyramid=2 / b_adapt=2 / b_bias=0 / direct=3 / weightb=1 / open_gop=0 / weightp=2 / keyint=240 / keyint_min=24 / scenecut=40 / intra_refresh=0 / rc_lookahead=60 / rc=2pass / mbtree=1 / bitrate=6162 / ratetol=2.0 / qcomp=0.60 / qpmin=0 / qpmax=51 / qpstep=4 / cplxblur=20.0 / qblur=0.5 / ip_ratio=1.40 / aq=1:1.00

Language : English

Default : Yes

Forced : No


Audio

ID : 2

Format : AC-3

Format/Info : Audio Coding 3

Mode extension : CM (complete main)

Format settings, Endianness : Big

Codec ID : A_AC3

Duration : 1h 35mn

Bit rate mode : Constant

Bit rate : 384 Kbps

Channel(s) : 6 channels

Channel positions : Front: L C R, Side: L R, LFE

Sampling rate : 48.0 KHz

Bit depth : 16 bits

Compression mode : Lossy

Stream size : 263 MiB (6%)

Title : Русский

Default : Yes

Forced : No


Menu

00:00:00.000 : en:00:00:00.000

00:01:38.932 : en:00:01:38.932

00:04:00.323 : en:00:04:00.323

00:06:19.128 : en:00:06:19.128

00:12:19.780 : en:00:12:19.780

00:16:48.549 : en:00:16:48.549

00:24:08.238 : en:00:24:08.238

00:27:53.755 : en:00:27:53.755

00:31:33.057 : en:00:31:33.057

00:35:52.441 : en:00:35:52.441

00:42:46.689 : en:00:42:46.689

01:00:11.399 : en:01:00:11.399

01:03:41.359 : en:01:03:41.359

01:07:41.724 : en:01:07:41.724

01:11:02.383 : en:01:11:02.383

01:16:47.436 : en:01:16:47.436

01:27:13.770 : en:01:27:13.770

01:31:27.440 : en:01:31:27.440


Скриншоты



Американский пирог 2 (2001) BDRip 1080p от NOLIMITS-TEAM

Format : Matroska

Format version : Version 2

File size : 4.37 GiB

Duration : 1h 50mn

Overall bit rate : 5 650 Kbps

Movie name : Rip by mitrian (NOLIMITS-TEAM.RU)

Encoded date : UTC 2012-05-04 16:20:31

Writing application : mkvmerge v5.5.0 ('Healer') built on Apr 6 2012 21:43:24

Writing library : libebml v1.2.3 + libmatroska v1.3.0


Video

ID : 1

Format : AVC

Format/Info : Advanced Video Codec

Format profile : High@L4.1

Format settings, CABAC : Yes

Format settings, ReFrames : 4 frames

Codec ID : V_MPEG4/ISO/AVC

Duration : 1h 50mn

Bit rate : 5 271 Kbps

Width : 1 920 pixels

Height : 1 040 pixels

Display aspect ratio : 1.85:1

Original display aspect ratio : 1.85:1

Frame rate : 23.976 fps

Color space : YUV

Chroma subsampling : 4:2:0

Bit depth : 8 bits

Scan type : Progressive

Bits/(Pixel*Frame) : 0.110

Stream size : 3.98 GiB (91%)

Title : Американский пирог 2 (2001) BDRip 1080p от NOLIMITS-TEAM

Writing library : x264 core 124 r2197 69a0443

Encoding settings : cabac=1 / ref=4 / deblock=1:-3:-2 / analyse=0x3:0x133 / me=umh / subme=10 / psy=1 / psy_rd=1.00:0.10 / mixed_ref=1 / me_range=32 / chroma_me=1 / trellis=2 / 8x8dct=1 / cqm=0 / deadzone=21,11 / fast_pskip=0 / chroma_qp_offset=-3 / threads=6 / sliced_threads=0 / slices=4 / nr=0 / decimate=0 / interlaced=0 / bluray_compat=0 / constrained_intra=0 / bframes=5 / b_pyramid=2 / b_adapt=2 / b_bias=0 / direct=3 / weightb=1 / open_gop=0 / weightp=2 / keyint=240 / keyint_min=24 / scenecut=40 / intra_refresh=0 / rc_lookahead=60 / rc=2pass / mbtree=1 / bitrate=5271 / ratetol=2.0 / qcomp=0.60 / qpmin=0 / qpmax=51 / qpstep=4 / cplxblur=20.0 / qblur=0.5 / ip_ratio=1.40 / aq=1:1.00

Language : English

Default : Yes

Forced : No


Audio

ID : 2

Format : AC-3

Format/Info : Audio Coding 3

Mode extension : CM (complete main)

Format settings, Endianness : Big

Codec ID : A_AC3

Duration : 1h 50mn

Bit rate mode : Constant

Bit rate : 384 Kbps

Channel(s) : 6 channels

Channel positions : Front: L C R, Side: L R, LFE

Sampling rate : 48.0 KHz

Bit depth : 16 bits

Compression mode : Lossy

Stream size : 304 MiB (7%)

Title : Русский

Default : Yes

Forced : No


Menu

00:00:00.000 : en:00:00:00.000

00:06:15.291 : en:00:06:15.291

00:08:33.930 : en:00:08:33.930

00:15:53.661 : en:00:15:53.661

00:20:22.012 : en:00:20:22.012

00:22:41.818 : en:00:22:41.818

00:27:22.223 : en:00:27:22.223

00:34:31.277 : en:00:34:31.277

00:38:09.203 : en:00:38:09.203

00:41:33.407 : en:00:41:33.407

00:44:11.106 : en:00:44:11.106

00:57:56.139 : en:00:57:56.139

01:05:34.305 : en:01:05:34.305

01:14:42.227 : en:01:14:42.227

01:18:09.935 : en:01:18:09.935

01:24:02.829 : en:01:24:02.829

01:28:26.301 : en:01:28:26.301

01:36:27.448 : en:01:36:27.448

01:41:07.603 : en:01:41:07.603

01:44:04.613 : en:01:44:04.613


Скриншоты



Американский пирог 3 (2003) BDRip 1080p от NOLIMITS-TEAM

Format : Matroska

Format version : Version 2

File size : 4.37 GiB

Duration : 1h 43mn

Overall bit rate : 6 048 Kbps

Movie name : Rip by mitrian (NOLIMITS-TEAM.RU)

Encoded date : UTC 2012-05-05 16:40:56

Writing application : mkvmerge v5.5.0 ('Healer') built on Apr 6 2012 21:43:24

Writing library : libebml v1.2.3 + libmatroska v1.3.0


Video

ID : 1

Format : AVC

Format/Info : Advanced Video Codec

Format profile : High@L4.1

Format settings, CABAC : Yes

Format settings, ReFrames : 5 frames

Codec ID : V_MPEG4/ISO/AVC

Duration : 1h 43mn

Bit rate : 5 670 Kbps

Width : 1 920 pixels

Height : 816 pixels

Display aspect ratio : 2.35:1

Frame rate : 23.976 fps

Color space : YUV

Chroma subsampling : 4:2:0

Bit depth : 8 bits

Scan type : Progressive

Bits/(Pixel*Frame) : 0.151

Stream size : 4.00 GiB (92%)

Title : Американский пирог 3 (2003) BDRip 1080p от NOLIMITS-TEAM

Writing library : x264 core 124 r2197 69a0443

Encoding settings : cabac=1 / ref=5 / deblock=1:-3:-2 / analyse=0x3:0x133 / me=umh / subme=10 / psy=1 / psy_rd=1.00:0.10 / mixed_ref=1 / me_range=32 / chroma_me=1 / trellis=2 / 8x8dct=1 / cqm=0 / deadzone=21,11 / fast_pskip=0 / chroma_qp_offset=-3 / threads=6 / sliced_threads=0 / slices=4 / nr=0 / decimate=0 / interlaced=0 / bluray_compat=0 / constrained_intra=0 / bframes=5 / b_pyramid=2 / b_adapt=2 / b_bias=0 / direct=3 / weightb=1 / open_gop=0 / weightp=2 / keyint=240 / keyint_min=24 / scenecut=40 / intra_refresh=0 / rc_lookahead=60 / rc=2pass / mbtree=1 / bitrate=5670 / ratetol=2.0 / qcomp=0.60 / qpmin=0 / qpmax=51 / qpstep=4 / cplxblur=20.0 / qblur=0.5 / ip_ratio=1.40 / aq=1:1.00

Language : English

Default : Yes

Forced : No


Audio

ID : 2

Format : AC-3

Format/Info : Audio Coding 3

Mode extension : CM (complete main)

Format settings, Endianness : Big

Codec ID : A_AC3

Duration : 1h 43mn

Bit rate mode : Constant

Bit rate : 384 Kbps

Channel(s) : 6 channels

Channel positions : Front: L C R, Side: L R, LFE

Sampling rate : 48.0 KHz

Bit depth : 16 bits

Compression mode : Lossy

Stream size : 284 MiB (6%)

Title : Русский

Default : Yes

Forced : No


Menu

00:00:00.000 : en:00:00:00.000

00:01:38.932 : en:00:01:38.932

00:04:00.323 : en:00:04:00.323

00:06:19.128 : en:00:06:19.128

00:12:19.780 : en:00:12:19.780

00:16:48.549 : en:00:16:48.549

00:24:08.238 : en:00:24:08.238

00:27:53.755 : en:00:27:53.755

00:31:33.057 : en:00:31:33.057

00:35:52.441 : en:00:35:52.441

00:42:46.689 : en:00:42:46.689

01:00:11.399 : en:01:00:11.399

01:03:41.359 : en:01:03:41.359

01:07:41.724 : en:01:07:41.724

01:11:02.383 : en:01:11:02.383

01:16:47.436 : en:01:16:47.436

01:27:13.770 : en:01:27:13.770

01:31:27.440 : en:01:31:27.440

01:38:54.440 : en:01:38:54.440

01:45:51.445 : en:01:45:51.445


Скриншоты



Автор рипа http://s002.youpic.su/pictures/1333569600/c64c6f114c57d49e0b4d81c8f199f136.gif mitrian
Оповестить о раздаче Включить оповещение на почту ( о новом торрент-файле ), когда появится раздача с похожим названием: Американский пирог: Трилогия, American Pie

E-Mail адрес:
Внимание: Если вы не авторизованы, то для вас будет создана временная учетная запись (доступ к аккаунту будет прикреплен в письме).
Похожие файлы
Загрузка / Обновление
Категория Фильмы / HD / Full HD / Blu-Ray / 2K / 4K RSS лента
Добавлен (4 года, 1 месяц назад)
Просмотров 80 раз (a)
Взят 0 раз (a)
Файлы 18, 17.30 GB (18 573 977 764 байт)
Раздал ViKa  (Искать торренты)
Участники
Скачивают (качают): 0 (1), Завершено: 0 (0)
Просматривают

« Американский пирог / American Pie (1999) BDRip 1080p -†- ¿? -†- Американский пирог: Трилогия / American Pie (1999, 2001, 2003) BDRip 720p »

:: Список Комментариев
Нет комментариев.

 Нет комментариев

Поблагодарите нас, взамен, мы будем заливать еще больше раздач!


Счетчики
Рейтинг@Mail.ru Яндекс.Метрика


Поделитесь в социальных сетях


Быстрый Поиск





Спасибо Вам
Мы благодарны этим людям в поддержке сайта:
kokorin1970, oiproger
Попади и ты в этот блок, поставь оценку 5 и получи 300 MB к отдаче:
Войти на сайт сейчас.

Правообладателям
По всем вопросам сотрудничества, удаления авторских файлов "пачкой", просьба отписаться по адреcу:
abuse@muz-tracker.net

Наши группы в VK, OK