Самые активные релизы за неделю
Музыка / Мультимедиа Картинки / Фото Сериалы Фильмы / AVI / MKV / MP4 Фильмы / HD / Full HD / Blu-Ray / 2K / 4K
Top-600 Best Blues & Rock - Collection ( Blues / 2012 )
  • Top-600 Best Blues & Rock - Collection ( Blues / 2012 )
  • Выше облаков. Русский сборник поп музыки ( Поп / 2017 )
  • / Dance / 2017
  • Время-времечко. Супер сборник русского шансона ( Шансон / 2017 )
  • Best Chillout Vol.30 ( Chillout / 2017 )
  • Hardsyle Music For Sports Games ( Club / 2017 )
  • Woody Herman - Verve Jazz Masters 54 (1996) MP3
  • Venom Blues - Discography / Blues / 2007 - 2013
  • Magic Island - Music For Balearic People (Vol.8, Mixed By Roger Shah) (2CD) ( Trance / 2017 )
  • Too Late, Too Late (13 CD) / Blues
  • NME Hardstyle: Energy Hit Music Only ( Club / 2017 )
  • Виктор Цой - 55 лет: лучшие песни и хиты ( Рок / 2017 )

:: Детали раздачи
Раздача является мультитрекерной — учтите, количество раздающих не будет совпадать с количеством участников на сайте (скачивание на клиентской стороне зависит от настроек µTorrent клиент программы, настройки -> Включить DHT, Обмен пирами и Поиск лок-х пиров).
Если висит надпись, пиры по нулям - не бойтесь, возможность скачать повторно раздачу - есть. Попробуйте, в случае отказа - прокоментируйте или нажмите на "Позвать скачавших".
Данная раздача является свободной — учитывается только количество отданного, количество скачанного не фиксируется.

Вселенная / The Universe [S03] (2008) Blu-Ray 1080p | A Золотой торрент

Скачать Скачать .torrent файл (основная ссылка для скачивания файла)
Смотреть / Слушать онлайн просмотр (ссылка для просмотра файла через плагин 'Torrent Stream')
Magnet-ссылка (альтернативная ссылка для скачивания файла)
Теги / Метки документальный, научно-познавательный, исследование, природа, космос, 2008
Описание
Вселенная / The Universe [S03] (2008) Blu-Ray 1080p | A
Название: Вселенная

Оригинальное название: The Universe

Год выпуска: 2008

Жанр: Документальный, научно-познавательный, исследование, природа, космос
Режиссер: Лаура Верклан, Тони Лонг, Колин Кэмпбелл, Дуглас Коэн, Эндрю Нок, Дэррил Рейр

В ролях: Нил Тайсон, Джефф Марси, Роб Рой Бритт, Мишель Тэллер, Алекс Филиппенко, Лаура Дэнли, Уильям Хартманн, Эйми Мейнзер, Мичио Каку, Нэйт МакКрейди, Кевин Бэйнс, Джошуа Барнс, д-р Кевин Р. Грейзер


Описание: В этом сериале с помощью современной компьютерной графики и, основываясь на передовых исследованиях в области космоса, создатели фильма смогли воссоздать то, что происходит на других планетах, в других галактиках, вообразить какие формы жизни могли бы развиться в других атмосферах. Вы сможете увидеть космические бедствия, параллельные вселенные, скорость света и узнать многое другое о тайнах космоса.


http://s.rutor.org/imdb/pic/1051155.gif http://www.kinopoisk.ru/rating/469591.gif

Страна: США, Flight 33 Productions

Продолжительность: 12 х ~ 00:45:00

Перевод: Авторский (одноголосый, закадровый) - Александр Дасевич

Субтитры: Русские, английские


Качество: Blu-Ray 1080p

Формат: BDMV

Видео: MPEG-4 AVC, ~ 24.9 Мбит/с, 1920x1080

Аудио rus: DTS, 2 ch, 768 Кбит/с

Аудио eng: LPCM, 2 ch, 2304 Кбит/с


Релиз

Список серий

[spoiler=MI]

Disc Title: THE_UNIVERSE_S3_D1_RUS

Disc Size: 40 125 919 696 bytes

Protection: AACS

BD-Java: No

BDInfo: 0.5.2


Notes:


BDINFO HOME AND REPORTS SUBMISSION:

Cinema Squid

http://www.cinemasquid.com/Tools.aspx



INCLUDES FORUMS REPORT FOR:

Unofficial Blu-ray Audio and Video Specifications Thread

http://www.avsforum.com/avs-vb/showthread.php?t=760714

http://forum.blu-ray.com/showthread.php?t=3338



********************

PLAYLIST: 00002.MPLS

********************




Total Video

Title Codec Length Movie Size Disc Size Bitrate Bitrate Main Audio Track Secondary Audio Track

----- ------ ------- -------------- -------------- ------- ------- ------------------ ---------------------

00002.MPLS AVC 0:44:31 0 40 125 919 696 0,00 0,00 LPCM 2.0 2304Kbps (48kHz/24-bit)





DISC INFO:


Disc Title: THE_UNIVERSE_S3_D1_RUS

Disc Size: 40 125 919 696 bytes

Protection: AACS

BD-Java: No

BDInfo: 0.5.2


PLAYLIST REPORT:


Name: 00002.MPLS

Size: 0 bytes

Length: 0:44:31 (h:m:s)

Total Bitrate: 0,00 Mbps

Deion:


VIDEO:


Codec Bitrate Deion

----- ------- -----------

MPEG-4 AVC Video 0 kbps 1080p / 23,976 fps / 16:9 / High Profile 4.1


AUDIO:


Codec Language Bitrate Deion

----- -------- ------- -----------

LPCM Audio English 2304 kbps 2.0 / 48 kHz / 2304 kbps / 24-bit

DTS Audio Russian 768 kbps 2.0 / 48 kHz / 768 kbps / 16-bit


SUBTITLES:


Codec Language Bitrate Deion

----- -------- ------- -----------

Presentation Graphics English 0,000 kbps

Presentation Graphics Russian 0,000 kbps


FILES:


Name Time In Length Size Total Bitrate

---- ------- ------ ---- -------------

00007.M2TS 0:00:00.000 0:44:30.250 0 0

00004.M2TS 0:44:30.250 0:00:01.000 0 0


CHAPTERS:


Number Time In Length Avg Video Rate Max 1-Sec Rate Max 1-Sec Time Max 5-Sec Rate Max 5-Sec Time Max 10Sec Rate Max 10Sec Time Avg Frame Size Max Frame Size Max Frame Time

------ ------- ------ -------------- -------------- -------------- -------------- -------------- -------------- -------------- -------------- -------------- --------------

1 0:00:00.000 0:01:15.617 0 kbps 0 kbps 00:00:00.000 0 kbps 00:00:00.000 0 kbps 00:00:00.000 0 bytes 0 bytes 00:00:00.000

2 0:01:15.617 0:12:13.357 0 kbps 0 kbps 00:00:00.000 0 kbps 00:00:00.000 0 kbps 00:00:00.000 0 bytes 0 bytes 00:00:00.000

3 0:13:28.974 0:10:45.811 0 kbps 0 kbps 00:00:00.000 0 kbps 00:00:00.000 0 kbps 00:00:00.000 0 bytes 0 bytes 00:00:00.000

4 0:24:14.786 0:06:55.581 0 kbps 0 kbps 00:00:00.000 0 kbps 00:00:00.000 0 kbps 00:00:00.000 0 bytes 0 bytes 00:00:00.000

5 0:31:10.368 0:07:06.425 0 kbps 0 kbps 00:00:00.000 0 kbps 00:00:00.000 0 kbps 00:00:00.000 0 bytes 0 bytes 00:00:00.000

6 0:38:16.794 0:06:13.456 0 kbps 0 kbps 00:00:00.000 0 kbps 00:00:00.000 0 kbps 00:00:00.000 0 bytes 0 bytes 00:00:00.000

7 0:44:30.250 0:00:01.001 0 kbps 0 kbps 00:00:00.000 0 kbps 00:00:00.000 0 kbps 00:00:00.000 0 bytes 0 bytes 00:00:00.000


STREAM DIAGNOSTICS:


File PID Type Codec Language Seconds Bitrate Bytes Packets

---- --- ---- ----- -------- -------------- -------------- ------------- -----

00007.M2TS 4113 (0x1011) 0x1B AVC 0 0 0 0

00007.M2TS 4352 (0x1100) 0x82 DTS rus (Russian) 0 0 0 0

00007.M2TS 4353 (0x1101) 0x80 LPCM eng (English) 0 0 0 0

00007.M2TS 4608 (0x1200) 0x90 PGS rus (Russian) 0 0 0 0

00007.M2TS 4609 (0x1201) 0x90 PGS eng (English) 0 0 0 0

00004.M2TS 4113 (0x1011) 0x1B AVC 0 0 0 0





QUICK SUMMARY:


Disc Title: THE_UNIVERSE_S3_D1_RUS

Disc Size: 40 125 919 696 bytes

Protection: AACS

BD-Java: No

Playlist: 00002.MPLS

Size: 0 bytes

Length: 0:44:31

Total Bitrate: 0,00 Mbps

Video: MPEG-4 AVC Video / 0 kbps / 1080p / 23,976 fps / 16:9 / High Profile 4.1

Audio: English / LPCM Audio / 2.0 / 48 kHz / 2304 kbps / 24-bit

Audio: Russian / DTS Audio / 2.0 / 48 kHz / 768 kbps / 16-bit

Subtitle: English / 0,000 kbps

Subtitle: Russian / 0,000 kbps



********************

PLAYLIST: 00006.MPLS

********************




Total Video

Title Codec Length Movie Size Disc Size Bitrate Bitrate Main Audio Track Secondary Audio Track

----- ------ ------- -------------- -------------- ------- ------- ------------------ ---------------------

00006.MPLS AVC 0:44:29 0 40 125 919 696 0,00 0,00 LPCM 2.0 2304Kbps (48kHz/24-bit)





DISC INFO:


Disc Title: THE_UNIVERSE_S3_D1_RUS

Disc Size: 40 125 919 696 bytes

Protection: AACS

BD-Java: No

BDInfo: 0.5.2


PLAYLIST REPORT:


Name: 00006.MPLS

Size: 0 bytes

Length: 0:44:29 (h:m:s)

Total Bitrate: 0,00 Mbps

Deion:


VIDEO:


Codec Bitrate Deion

----- ------- -----------

MPEG-4 AVC Video 0 kbps 1080p / 23,976 fps / 16:9 / High Profile 4.1


AUDIO:


Codec Language Bitrate Deion

----- -------- ------- -----------

LPCM Audio English 2304 kbps 2.0 / 48 kHz / 2304 kbps / 24-bit

DTS Audio Russian 768 kbps 2.0 / 48 kHz / 768 kbps / 16-bit


SUBTITLES:


Codec Language Bitrate Deion

----- -------- ------- -----------

Presentation Graphics English 0,000 kbps

Presentation Graphics Russian 0,000 kbps


FILES:


Name Time In Length Size Total Bitrate

---- ------- ------ ---- -------------

00009.M2TS 0:00:00.000 0:44:28.290 0 0

00004.M2TS 0:44:28.290 0:00:01.000 0 0


CHAPTERS:


Number Time In Length Avg Video Rate Max 1-Sec Rate Max 1-Sec Time Max 5-Sec Rate Max 5-Sec Time Max 10Sec Rate Max 10Sec Time Avg Frame Size Max Frame Size Max Frame Time

------ ------- ------ -------------- -------------- -------------- -------------- -------------- -------------- -------------- -------------- -------------- --------------

1 0:00:00.000 0:01:11.237 0 kbps 0 kbps 00:00:00.000 0 kbps 00:00:00.000 0 kbps 00:00:00.000 0 bytes 0 bytes 00:00:00.000

2 0:01:11.237 0:08:41.062 0 kbps 0 kbps 00:00:00.000 0 kbps 00:00:00.000 0 kbps 00:00:00.000 0 bytes 0 bytes 00:00:00.000

3 0:09:52.300 0:09:27.400 0 kbps 0 kbps 00:00:00.000 0 kbps 00:00:00.000 0 kbps 00:00:00.000 0 bytes 0 bytes 00:00:00.000

4 0:19:19.700 0:09:27.275 0 kbps 0 kbps 00:00:00.000 0 kbps 00:00:00.000 0 kbps 00:00:00.000 0 bytes 0 bytes 00:00:00.000

5 0:28:46.975 0:07:06.175 0 kbps 0 kbps 00:00:00.000 0 kbps 00:00:00.000 0 kbps 00:00:00.000 0 bytes 0 bytes 00:00:00.000

6 0:35:53.151 0:08:35.139 0 kbps 0 kbps 00:00:00.000 0 kbps 00:00:00.000 0 kbps 00:00:00.000 0 bytes 0 bytes 00:00:00.000

7 0:44:28.290 0:00:01.000 0 kbps 0 kbps 00:00:00.000 0 kbps 00:00:00.000 0 kbps 00:00:00.000 0 bytes 0 bytes 00:00:00.000


STREAM DIAGNOSTICS:


File PID Type Codec Language Seconds Bitrate Bytes Packets

---- --- ---- ----- -------- -------------- -------------- ------------- -----

00009.M2TS 4113 (0x1011) 0x1B AVC 0 0 0 0

00009.M2TS 4352 (0x1100) 0x82 DTS rus (Russian) 0 0 0 0

00009.M2TS 4353 (0x1101) 0x80 LPCM eng (English) 0 0 0 0

00009.M2TS 4608 (0x1200) 0x90 PGS rus (Russian) 0 0 0 0

00009.M2TS 4609 (0x1201) 0x90 PGS eng (English) 0 0 0 0

00004.M2TS 4113 (0x1011) 0x1B AVC 0 0 0 0





QUICK SUMMARY:


Disc Title: THE_UNIVERSE_S3_D1_RUS

Disc Size: 40 125 919 696 bytes

Protection: AACS

BD-Java: No

Playlist: 00006.MPLS

Size: 0 bytes

Length: 0:44:29

Total Bitrate: 0,00 Mbps

Video: MPEG-4 AVC Video / 0 kbps / 1080p / 23,976 fps / 16:9 / High Profile 4.1

Audio: English / LPCM Audio / 2.0 / 48 kHz / 2304 kbps / 24-bit

Audio: Russian / DTS Audio / 2.0 / 48 kHz / 768 kbps / 16-bit

Subtitle: English / 0,000 kbps

Subtitle: Russian / 0,000 kbps



********************

PLAYLIST: 00000.MPLS

********************




Total Video

Title Codec Length Movie Size Disc Size Bitrate Bitrate Main Audio Track Secondary Audio Track

----- ------ ------- -------------- -------------- ------- ------- ------------------ ---------------------

00000.MPLS AVC 0:44:28 1 982 615 808 40 125 919 696 5,94 24,68 LPCM 2.0 2304Kbps (48kHz/24-bit)





DISC INFO:


Disc Title: THE_UNIVERSE_S3_D1_RUS

Disc Size: 40 125 919 696 bytes

Protection: AACS

BD-Java: No

BDInfo: 0.5.2


PLAYLIST REPORT:


Name: 00000.MPLS

Size: 1 982 615 808 bytes

Length: 0:44:28 (h:m:s)

Total Bitrate: 5,94 Mbps

Deion:


VIDEO:


Codec Bitrate Deion

----- ------- -----------

MPEG-4 AVC Video 24681 kbps 1080p / 23,976 fps / 16:9 / High Profile 4.1


AUDIO:


Codec Language Bitrate Deion

----- -------- ------- -----------

LPCM Audio English 2304 kbps 2.0 / 48 kHz / 2304 kbps / 24-bit

DTS Audio Russian 768 kbps 2.0 / 48 kHz / 768 kbps / 16-bit


SUBTITLES:


Codec Language Bitrate Deion

----- -------- ------- -----------

Presentation Graphics English 69,504 kbps

Presentation Graphics Russian 62,107 kbps


FILES:


Name Time In Length Size Total Bitrate

---- ------- ------ ---- -------------

00000.M2TS 0:00:00.000 0:44:27.915 1 982 615 808 29 291

00004.M2TS 0:44:27.915 0:00:01.000 0 0


CHAPTERS:


Number Time In Length Avg Video Rate Max 1-Sec Rate Max 1-Sec Time Max 5-Sec Rate Max 5-Sec Time Max 10Sec Rate Max 10Sec Time Avg Frame Size Max Frame Size Max Frame Time

------ ------- ------ -------------- -------------- -------------- -------------- -------------- -------------- -------------- -------------- -------------- --------------

1 0:00:00.000 0:01:32.175 25 558 kbps 40 482 kbps 00:00:10.176 34 843 kbps 00:00:14.931 33 596 kbps 00:00:10.010 133 190 bytes 348 954 bytes 00:00:10.927

2 0:01:32.175 0:11:41.200 15 700 kbps 45 796 kbps 00:06:38.773 35 191 kbps 00:06:34.769 34 379 kbps 00:05:22.572 127 746 bytes 431 526 bytes 00:07:28.072

3 0:13:13.375 0:10:12.069 0 kbps 0 kbps 00:00:00.000 0 kbps 00:00:00.000 0 kbps 00:00:00.000 0 bytes 0 bytes 00:00:00.000

4 0:23:25.445 0:09:17.098 0 kbps 0 kbps 00:00:00.000 0 kbps 00:00:00.000 0 kbps 00:00:00.000 0 bytes 0 bytes 00:00:00.000

5 0:32:42.543 0:05:57.440 0 kbps 0 kbps 00:00:00.000 0 kbps 00:00:00.000 0 kbps 00:00:00.000 0 bytes 0 bytes 00:00:00.000

6 0:38:39.984 0:05:47.930 0 kbps 0 kbps 00:00:00.000 0 kbps 00:00:00.000 0 kbps 00:00:00.000 0 bytes 0 bytes 00:00:00.000

7 0:44:27.915 0:00:01.001 0 kbps 0 kbps 00:00:00.000 0 kbps 00:00:00.000 0 kbps 00:00:00.000 0 bytes 0 bytes 00:00:00.000


STREAM DIAGNOSTICS:


File PID Type Codec Language Seconds Bitrate Bytes Packets

---- --- ---- ----- -------- -------------- -------------- ------------- -----

00000.M2TS 4113 (0x1011) 0x1B AVC 541,374 24 686 1 670 567 195 9 086 695

00000.M2TS 4352 (0x1100) 0x82 DTS rus (Russian) 541,374 754 51 025 223 304 325

00000.M2TS 4353 (0x1101) 0x80 LPCM eng (English) 541,374 2 311 156 373 648 866 336

00000.M2TS 4608 (0x1200) 0x90 PGS rus (Russian) 541,374 62 4 203 849 23 973

00000.M2TS 4609 (0x1201) 0x90 PGS eng (English) 541,374 70 4 704 539 26 654

00004.M2TS 4113 (0x1011) 0x1B AVC 0 0 0 0





QUICK SUMMARY:


Disc Title: THE_UNIVERSE_S3_D1_RUS

Disc Size: 40 125 919 696 bytes

Protection: AACS

BD-Java: No

Playlist: 00000.MPLS

Size: 1 982 615 808 bytes

Length: 0:44:28

Total Bitrate: 5,94 Mbps

Video: MPEG-4 AVC Video / 24681 kbps / 1080p / 23,976 fps / 16:9 / High Profile 4.1

Audio: English / LPCM Audio / 2.0 / 48 kHz / 2304 kbps / 24-bit

Audio: Russian / DTS Audio / 2.0 / 48 kHz / 768 kbps / 16-bit

Subtitle: English / 69,504 kbps

Subtitle: Russian / 62,107 kbps



********************

PLAYLIST: 00005.MPLS

********************




Total Video

Title Codec Length Movie Size Disc Size Bitrate Bitrate Main Audio Track Secondary Audio Track

----- ------ ------- -------------- -------------- ------- ------- ------------------ ---------------------

00005.MPLS AVC 0:44:28 0 40 125 919 696 0,00 0,00 LPCM 2.0 2304Kbps (48kHz/24-bit)





DISC INFO:


Disc Title: THE_UNIVERSE_S3_D1_RUS

Disc Size: 40 125 919 696 bytes

Protection: AACS

BD-Java: No

BDInfo: 0.5.2


PLAYLIST REPORT:


Name: 00005.MPLS

Size: 0 bytes

Length: 0:44:28 (h:m:s)

Total Bitrate: 0,00 Mbps

Deion:


VIDEO:


Codec Bitrate Deion

----- ------- -----------

MPEG-4 AVC Video 0 kbps 1080p / 23,976 fps / 16:9 / High Profile 4.1


AUDIO:


Codec Language Bitrate Deion

----- -------- ------- -----------

LPCM Audio English 2304 kbps 2.0 / 48 kHz / 2304 kbps / 24-bit

DTS Audio Russian 768 kbps 2.0 / 48 kHz / 768 kbps / 16-bit


SUBTITLES:


Codec Language Bitrate Deion

----- -------- ------- -----------

Presentation Graphics English 0,000 kbps

Presentation Graphics Russian 0,000 kbps


FILES:


Name Time In Length Size Total Bitrate

---- ------- ------ ---- -------------

00008.M2TS 0:00:00.000 0:44:27.456 0 0

00004.M2TS 0:44:27.456 0:00:01.000 0 0


CHAPTERS:


Number Time In Length Avg Video Rate Max 1-Sec Rate Max 1-Sec Time Max 5-Sec Rate Max 5-Sec Time Max 10Sec Rate Max 10Sec Time Avg Frame Size Max Frame Size Max Frame Time

------ ------- ------ -------------- -------------- -------------- -------------- -------------- -------------- -------------- -------------- -------------- --------------

1 0:00:00.000 0:01:27.253 0 kbps 0 kbps 00:00:00.000 0 kbps 00:00:00.000 0 kbps 00:00:00.000 0 bytes 0 bytes 00:00:00.000

2 0:01:27.253 0:11:38.906 0 kbps 0 kbps 00:00:00.000 0 kbps 00:00:00.000 0 kbps 00:00:00.000 0 bytes 0 bytes 00:00:00.000

3 0:13:06.160 0:07:55.141 0 kbps 0 kbps 00:00:00.000 0 kbps 00:00:00.000 0 kbps 00:00:00.000 0 bytes 0 bytes 00:00:00.000

4 0:21:01.301 0:06:26.052 0 kbps 0 kbps 00:00:00.000 0 kbps 00:00:00.000 0 kbps 00:00:00.000 0 bytes 0 bytes 00:00:00.000

5 0:27:27.354 0:09:19.058 0 kbps 0 kbps 00:00:00.000 0 kbps 00:00:00.000 0 kbps 00:00:00.000 0 bytes 0 bytes 00:00:00.000

6 0:36:46.412 0:07:41.043 0 kbps 0 kbps 00:00:00.000 0 kbps 00:00:00.000 0 kbps 00:00:00.000 0 bytes 0 bytes 00:00:00.000

7 0:44:27.456 0:00:01.000 0 kbps 0 kbps 00:00:00.000 0 kbps 00:00:00.000 0 kbps 00:00:00.000 0 bytes 0 bytes 00:00:00.000


STREAM DIAGNOSTICS:


File PID Type Codec Language Seconds Bitrate Bytes Packets

---- --- ---- ----- -------- -------------- -------------- ------------- -----

00008.M2TS 4113 (0x1011) 0x1B AVC 0 0 0 0

00008.M2TS 4352 (0x1100) 0x82 DTS rus (Russian) 0 0 0 0

00008.M2TS 4353 (0x1101) 0x80 LPCM eng (English) 0 0 0 0

00008.M2TS 4608 (0x1200) 0x90 PGS rus (Russian) 0 0 0 0

00008.M2TS 4609 (0x1201) 0x90 PGS eng (English) 0 0 0 0

00004.M2TS 4113 (0x1011) 0x1B AVC 0 0 0 0





QUICK SUMMARY:


Disc Title: THE_UNIVERSE_S3_D1_RUS

Disc Size: 40 125 919 696 bytes

Protection: AACS

BD-Java: No

Playlist: 00005.MPLS

Size: 0 bytes

Length: 0:44:28

Total Bitrate: 0,00 Mbps

Video: MPEG-4 AVC Video / 0 kbps / 1080p / 23,976 fps / 16:9 / High Profile 4.1

Audio: English / LPCM Audio / 2.0 / 48 kHz / 2304 kbps / 24-bit

Audio: Russian / DTS Audio / 2.0 / 48 kHz / 768 kbps / 16-bit

Subtitle: English / 0,000 kbps

Subtitle: Russian / 0,000 kbps




Disc Title: THE_UNIVERSE_S3_D2_RUS

Disc Size: 40 087 211 000 bytes

Protection: AACS

BD-Java: No

BDInfo: 0.5.2


Notes:


BDINFO HOME AND REPORTS SUBMISSION:

Cinema Squid

http://www.cinemasquid.com/Tools.aspx



INCLUDES FORUMS REPORT FOR:

Unofficial Blu-ray Audio and Video Specifications Thread

http://www.avsforum.com/avs-vb/showthread.php?t=760714

http://forum.blu-ray.com/showthread.php?t=3338



********************

PLAYLIST: 00006.MPLS

********************




Total Video

Title Codec Length Movie Size Disc Size Bitrate Bitrate Main Audio Track Secondary Audio Track

----- ------ ------- -------------- -------------- ------- ------- ------------------ ---------------------

00006.MPLS AVC 0:44:30 9 879 244 800 40 087 211 000 29,59 24,98 LPCM 2.0 2304Kbps (48kHz/24-bit)





DISC INFO:


Disc Title: THE_UNIVERSE_S3_D2_RUS

Disc Size: 40 087 211 000 bytes

Protection: AACS

BD-Java: No

BDInfo: 0.5.2


PLAYLIST REPORT:


Name: 00006.MPLS

Size: 9 879 244 800 bytes

Length: 0:44:30 (h:m:s)

Total Bitrate: 29,59 Mbps

Deion:


VIDEO:


Codec Bitrate Deion

----- ------- -----------

MPEG-4 AVC Video 24984 kbps 1080p / 23,976 fps / 16:9 / High Profile 4.1


AUDIO:


Codec Language Bitrate Deion

----- -------- ------- -----------

LPCM Audio English 2304 kbps 2.0 / 48 kHz / 2304 kbps / 24-bit

DTS Audio Russian 768 kbps 2.0 / 48 kHz / 768 kbps / 16-bit


SUBTITLES:


Codec Language Bitrate Deion

----- -------- ------- -----------

Presentation Graphics English 64,891 kbps

Presentation Graphics Russian 54,088 kbps


FILES:


Name Time In Length Size Total Bitrate

---- ------- ------ ---- -------------

00000.M2TS 0:00:00.000 0:44:29.667 9 879 220 224 29 604

00004.M2TS 0:44:29.667 0:00:01.000 24 576 196


CHAPTERS:


Number Time In Length Avg Video Rate Max 1-Sec Rate Max 1-Sec Time Max 5-Sec Rate Max 5-Sec Time Max 10Sec Rate Max 10Sec Time Avg Frame Size Max Frame Size Max Frame Time

------ ------- ------ -------------- -------------- -------------- -------------- -------------- -------------- -------------- -------------- -------------- --------------

1 0:00:00.000 0:01:33.259 25 928 kbps 44 415 kbps 00:01:00.810 34 453 kbps 00:00:06.256 33 239 kbps 00:00:10.176 135 118 bytes 571 458 bytes 00:01:01.770

2 0:01:33.259 0:12:20.281 24 722 kbps 37 992 kbps 00:12:45.848 34 751 kbps 00:12:41.761 34 460 kbps 00:12:36.881 128 888 bytes 697 198 bytes 00:05:54.312

3 0:13:53.541 0:08:43.147 24 785 kbps 36 543 kbps 00:14:51.557 34 875 kbps 00:18:18.722 34 498 kbps 00:18:13.842 129 218 bytes 519 212 bytes 00:18:24.186

4 0:22:36.688 0:06:09.535 25 780 kbps 42 304 kbps 00:24:32.095 34 270 kbps 00:23:39.042 32 586 kbps 00:23:09.096 134 407 bytes 413 544 bytes 00:24:32.888

5 0:28:46.224 0:09:24.397 23 867 kbps 38 318 kbps 00:38:08.160 35 046 kbps 00:38:04.198 33 272 kbps 00:37:59.318 124 433 bytes 377 633 bytes 00:38:08.869

6 0:38:10.621 0:06:19.045 26 489 kbps 37 904 kbps 00:43:10.254 34 685 kbps 00:41:29.487 34 331 kbps 00:41:31.739 138 099 bytes 443 386 bytes 00:41:15.556

7 0:44:29.667 0:00:01.000 75 kbps 0 kbps 00:00:00.000 0 kbps 00:00:00.000 0 kbps 00:00:00.000 406 bytes 2 420 bytes 00:44:30.417


STREAM DIAGNOSTICS:


File PID Type Codec Language Seconds Bitrate Bytes Packets

---- --- ---- ----- -------- -------------- -------------- ------------- -----

00000.M2TS 4113 (0x1011) 0x1B AVC 2669,584 24 994 8 340 400 062 45 365 507

00000.M2TS 4352 (0x1100) 0x82 DTS rus (Russian) 2669,584 755 251 781 680 1 501 680

00000.M2TS 4353 (0x1101) 0x80 LPCM eng (English) 2669,584 2 310 771 000 696 4 271 472

00000.M2TS 4608 (0x1200) 0x90 PGS rus (Russian) 2669,584 54 18 056 514 103 359

00000.M2TS 4609 (0x1201) 0x90 PGS eng (English) 2669,584 65 21 662 758 122 789

00004.M2TS 4113 (0x1011) 0x1B AVC 0,876 107 11 764 72





QUICK SUMMARY:


Disc Title: THE_UNIVERSE_S3_D2_RUS

Disc Size: 40 087 211 000 bytes

Protection: AACS

BD-Java: No

Playlist: 00006.MPLS

Size: 9 879 244 800 bytes

Length: 0:44:30

Total Bitrate: 29,59 Mbps

Video: MPEG-4 AVC Video / 24984 kbps / 1080p / 23,976 fps / 16:9 / High Profile 4.1

Audio: English / LPCM Audio / 2.0 / 48 kHz / 2304 kbps / 24-bit

Audio: Russian / DTS Audio / 2.0 / 48 kHz / 768 kbps / 16-bit

Subtitle: English / 64,891 kbps

Subtitle: Russian / 54,088 kbps



********************

PLAYLIST: 00002.MPLS

********************




Total Video

Title Codec Length Movie Size Disc Size Bitrate Bitrate Main Audio Track Secondary Audio Track

----- ------ ------- -------------- -------------- ------- ------- ------------------ ---------------------

00002.MPLS AVC 0:44:29 401 146 368 40 087 211 000 1,20 22,91 LPCM 2.0 2304Kbps (48kHz/24-bit)





DISC INFO:


Disc Title: THE_UNIVERSE_S3_D2_RUS

Disc Size: 40 087 211 000 bytes

Protection: AACS

BD-Java: No

BDInfo: 0.5.2


PLAYLIST REPORT:


Name: 00002.MPLS

Size: 401 146 368 bytes

Length: 0:44:29 (h:m:s)

Total Bitrate: 1,20 Mbps

Deion:


VIDEO:


Codec Bitrate Deion

----- ------- -----------

MPEG-4 AVC Video 22908 kbps 1080p / 23,976 fps / 16:9 / High Profile 4.1


AUDIO:


Codec Language Bitrate Deion

----- -------- ------- -----------

LPCM Audio English 2304 kbps 2.0 / 48 kHz / 2304 kbps / 24-bit

DTS Audio Russian 768 kbps 2.0 / 48 kHz / 768 kbps / 24-bit


SUBTITLES:


Codec Language Bitrate Deion

----- -------- ------- -----------

Presentation Graphics English 47,299 kbps

Presentation Graphics Russian 40,545 kbps


FILES:


Name Time In Length Size Total Bitrate

---- ------- ------ ---- -------------

00007.M2TS 0:00:00.000 0:44:28.957 401 121 792 27 596

00004.M2TS 0:44:28.957 0:00:01.000 24 576 196


CHAPTERS:


Number Time In Length Avg Video Rate Max 1-Sec Rate Max 1-Sec Time Max 5-Sec Rate Max 5-Sec Time Max 10Sec Rate Max 10Sec Time Avg Frame Size Max Frame Size Max Frame Time

------ ------- ------ -------------- -------------- -------------- -------------- -------------- -------------- -------------- -------------- -------------- --------------

1 0:00:00.000 0:01:26.169 23 735 kbps 39 585 kbps 00:00:10.176 34 573 kbps 00:00:06.172 33 271 kbps 00:00:10.218 123 684 bytes 369 242 bytes 00:00:28.403

2 0:01:26.169 0:12:31.792 853 kbps 36 512 kbps 00:01:37.180 31 352 kbps 00:01:36.387 30 714 kbps 00:01:30.381 111 042 bytes 283 041 bytes 00:01:36.513

3 0:13:57.962 0:11:04.955 0 kbps 0 kbps 00:00:00.000 0 kbps 00:00:00.000 0 kbps 00:00:00.000 0 bytes 0 bytes 00:00:00.000

4 0:25:02.918 0:07:26.779 0 kbps 0 kbps 00:00:00.000 0 kbps 00:00:00.000 0 kbps 00:00:00.000 0 bytes 0 bytes 00:00:00.000

5 0:32:29.697 0:06:01.027 0 kbps 0 kbps 00:00:00.000 0 kbps 00:00:00.000 0 kbps 00:00:00.000 0 bytes 0 bytes 00:00:00.000

6 0:38:30.725 0:05:58.232 0 kbps 0 kbps 00:00:00.000 0 kbps 00:00:00.000 0 kbps 00:00:00.000 0 bytes 0 bytes 00:00:00.000

7 0:44:28.957 0:00:01.001 75 kbps 0 kbps 00:00:00.000 0 kbps 00:00:00.000 0 kbps 00:00:00.000 406 bytes 2 420 bytes 00:44:29.708


STREAM DIAGNOSTICS:


File PID Type Codec Language Seconds Bitrate Bytes Packets

---- --- ---- ----- -------- -------------- -------------- ------------- -----

00007.M2TS 4113 (0x1011) 0x1B AVC 116,158 23 129 335 825 481 1 826 808

00007.M2TS 4352 (0x1100) 0x82 DTS rus (Russian) 116,158 752 10 922 039 65 141

00007.M2TS 4353 (0x1101) 0x80 LPCM eng (English) 116,158 2 312 33 571 556 185 992

00007.M2TS 4608 (0x1200) 0x90 PGS rus (Russian) 116,158 41 594 416 3 405

00007.M2TS 4609 (0x1201) 0x90 PGS eng (English) 116,158 48 693 432 3 931

00004.M2TS 4113 (0x1011) 0x1B AVC 0,876 107 11 764 72





QUICK SUMMARY:


Disc Title: THE_UNIVERSE_S3_D2_RUS

Disc Size: 40 087 211 000 bytes

Protection: AACS

BD-Java: No

Playlist: 00002.MPLS

Size: 401 146 368 bytes

Length: 0:44:29

Total Bitrate: 1,20 Mbps

Video: MPEG-4 AVC Video / 22908 kbps / 1080p / 23,976 fps / 16:9 / High Profile 4.1

Audio: English / LPCM Audio / 2.0 / 48 kHz / 2304 kbps / 24-bit

Audio: Russian / DTS Audio / 2.0 / 48 kHz / 768 kbps / 24-bit

Subtitle: English / 47,299 kbps

Subtitle: Russian / 40,545 kbps



********************

PLAYLIST: 00000.MPLS

********************




Total Video

Title Codec Length Movie Size Disc Size Bitrate Bitrate Main Audio Track Secondary Audio Track

----- ------ ------- -------------- -------------- ------- ------- ------------------ ---------------------

00000.MPLS AVC 0:44:27 24 576 40 087 211 000 0,00 0,09 LPCM 2.0 2304Kbps (48kHz/24-bit)





DISC INFO:


Disc Title: THE_UNIVERSE_S3_D2_RUS

Disc Size: 40 087 211 000 bytes

Protection: AACS

BD-Java: No

BDInfo: 0.5.2


PLAYLIST REPORT:


Name: 00000.MPLS

Size: 24 576 bytes

Length: 0:44:27 (h:m:s)

Total Bitrate: 0,00 Mbps

Deion:


VIDEO:


Codec Bitrate Deion

----- ------- -----------

MPEG-4 AVC Video 94 kbps 1080p / 23,976 fps / 16:9 / High Profile 4.1


AUDIO:


Codec Language Bitrate Deion

----- -------- ------- -----------

LPCM Audio English 2304 kbps 2.0 / 48 kHz / 2304 kbps / 24-bit

DTS Audio Russian 768 kbps 2.0 / 48 kHz / 768 kbps / 24-bit


SUBTITLES:


Codec Language Bitrate Deion

----- -------- ------- -----------

Presentation Graphics English 0,000 kbps

Presentation Graphics Russian 0,000 kbps


FILES:


Name Time In Length Size Total Bitrate

---- ------- ------ ---- -------------

00008.M2TS 0:00:00.000 0:44:26.372 0 0

00004.M2TS 0:44:26.372 0:00:01.000 24 576 196


CHAPTERS:


Number Time In Length Avg Video Rate Max 1-Sec Rate Max 1-Sec Time Max 5-Sec Rate Max 5-Sec Time Max 10Sec Rate Max 10Sec Time Avg Frame Size Max Frame Size Max Frame Time

------ ------- ------ -------------- -------------- -------------- -------------- -------------- -------------- -------------- -------------- -------------- --------------

1 0:00:00.000 0:01:30.590 0 kbps 0 kbps 00:00:00.000 0 kbps 00:00:00.000 0 kbps 00:00:00.000 2 423 bytes 2 423 bytes 00:44:26.372

2 0:01:30.590 0:11:02.078 0 kbps 0 kbps 00:00:00.000 0 kbps 00:00:00.000 0 kbps 00:00:00.000 0 bytes 0 bytes 00:00:00.000

3 0:12:32.668 0:09:39.829 0 kbps 0 kbps 00:00:00.000 0 kbps 00:00:00.000 0 kbps 00:00:00.000 0 bytes 0 bytes 00:00:00.000

4 0:22:12.497 0:08:59.163 0 kbps 0 kbps 00:00:00.000 0 kbps 00:00:00.000 0 kbps 00:00:00.000 0 bytes 0 bytes 00:00:00.000

5 0:31:11.661 0:06:34.936 0 kbps 0 kbps 00:00:00.000 0 kbps 00:00:00.000 0 kbps 00:00:00.000 0 bytes 0 bytes 00:00:00.000

6 0:37:46.597 0:06:39.774 0 kbps 0 kbps 00:00:00.000 0 kbps 00:00:00.000 0 kbps 00:00:00.000 0 bytes 0 bytes 00:00:00.000

7 0:44:26.372 0:00:01.000 75 kbps 0 kbps 00:00:00.000 0 kbps 00:00:00.000 0 kbps 00:00:00.000 406 bytes 2 420 bytes 00:44:27.122


STREAM DIAGNOSTICS:


File PID Type Codec Language Seconds Bitrate Bytes Packets

---- --- ---- ----- -------- -------------- -------------- ------------- -----

00008.M2TS 4113 (0x1011) 0x1B AVC 0 0 0 0

00008.M2TS 4352 (0x1100) 0x82 DTS rus (Russian) 0 0 0 0

00008.M2TS 4353 (0x1101) 0x80 LPCM eng (English) 0 0 0 0

00008.M2TS 4608 (0x1200) 0x90 PGS rus (Russian) 0 0 0 0

00008.M2TS 4609 (0x1201) 0x90 PGS eng (English) 0 0 0 0

00004.M2TS 4113 (0x1011) 0x1B AVC 0,876 107 11 764 72





QUICK SUMMARY:


Disc Title: THE_UNIVERSE_S3_D2_RUS

Disc Size: 40 087 211 000 bytes

Protection: AACS

BD-Java: No

Playlist: 00000.MPLS

Size: 24 576 bytes

Length: 0:44:27

Total Bitrate: 0,00 Mbps

Video: MPEG-4 AVC Video / 94 kbps / 1080p / 23,976 fps / 16:9 / High Profile 4.1

Audio: English / LPCM Audio / 2.0 / 48 kHz / 2304 kbps / 24-bit

Audio: Russian / DTS Audio / 2.0 / 48 kHz / 768 kbps / 24-bit

Subtitle: English / 0,000 kbps

Subtitle: Russian / 0,000 kbps



********************

PLAYLIST: 00005.MPLS

********************




Total Video

Title Codec Length Movie Size Disc Size Bitrate Bitrate Main Audio Track Secondary Audio Track

----- ------ ------- -------------- -------------- ------- ------- ------------------ ---------------------

00005.MPLS AVC 0:44:27 24 576 40 087 211 000 0,00 0,09 LPCM 2.0 2304Kbps (48kHz/24-bit)





DISC INFO:


Disc Title: THE_UNIVERSE_S3_D2_RUS

Disc Size: 40 087 211 000 bytes

Protection: AACS

BD-Java: No

BDInfo: 0.5.2


PLAYLIST REPORT:


Name: 00005.MPLS

Size: 24 576 bytes

Length: 0:44:27 (h:m:s)

Total Bitrate: 0,00 Mbps

Deion:


VIDEO:


Codec Bitrate Deion

----- ------- -----------

MPEG-4 AVC Video 94 kbps 1080p / 23,976 fps / 16:9 / High Profile 4.1


AUDIO:


Codec Language Bitrate Deion

----- -------- ------- -----------

LPCM Audio English 2304 kbps 2.0 / 48 kHz / 2304 kbps / 24-bit

DTS Audio Russian 768 kbps 2.0 / 48 kHz / 768 kbps / 24-bit


SUBTITLES:


Codec Language Bitrate Deion

----- -------- ------- -----------

Presentation Graphics English 0,000 kbps

Presentation Graphics Russian 0,000 kbps


FILES:


Name Time In Length Size Total Bitrate

---- ------- ------ ---- -------------

00009.M2TS 0:00:00.000 0:44:26.372 0 0

00004.M2TS 0:44:26.372 0:00:01.000 24 576 196


CHAPTERS:


Number Time In Length Avg Video Rate Max 1-Sec Rate Max 1-Sec Time Max 5-Sec Rate Max 5-Sec Time Max 10Sec Rate Max 10Sec Time Avg Frame Size Max Frame Size Max Frame Time

------ ------- ------ -------------- -------------- -------------- -------------- -------------- -------------- -------------- -------------- -------------- --------------

1 0:00:00.000 0:01:18.661 0 kbps 0 kbps 00:00:00.000 0 kbps 00:00:00.000 0 kbps 00:00:00.000 2 423 bytes 2 423 bytes 00:44:26.372

2 0:01:18.661 0:13:26.222 0 kbps 0 kbps 00:00:00.000 0 kbps 00:00:00.000 0 kbps 00:00:00.000 0 bytes 0 bytes 00:00:00.000

3 0:14:44.884 0:07:51.137 0 kbps 0 kbps 00:00:00.000 0 kbps 00:00:00.000 0 kbps 00:00:00.000 0 bytes 0 bytes 00:00:00.000

4 0:22:36.021 0:07:52.138 0 kbps 0 kbps 00:00:00.000 0 kbps 00:00:00.000 0 kbps 00:00:00.000 0 bytes 0 bytes 00:00:00.000

5 0:30:28.159 0:06:57.834 0 kbps 0 kbps 00:00:00.000 0 kbps 00:00:00.000 0 kbps 00:00:00.000 0 bytes 0 bytes 00:00:00.000

6 0:37:25.993 0:07:00.378 0 kbps 0 kbps 00:00:00.000 0 kbps 00:00:00.000 0 kbps 00:00:00.000 0 bytes 0 bytes 00:00:00.000

7 0:44:26.372 0:00:01.000 75 kbps 0 kbps 00:00:00.000 0 kbps 00:00:00.000 0 kbps 00:00:00.000 406 bytes 2 420 bytes 00:44:27.122


STREAM DIAGNOSTICS:


File PID Type Codec Language Seconds Bitrate Bytes Packets

---- --- ---- ----- -------- -------------- -------------- ------------- -----

00009.M2TS 4113 (0x1011) 0x1B AVC 0 0 0 0

00009.M2TS 4352 (0x1100) 0x82 DTS rus (Russian) 0 0 0 0

00009.M2TS 4353 (0x1101) 0x80 LPCM eng (English) 0 0 0 0

00009.M2TS 4608 (0x1200) 0x90 PGS rus (Russian) 0 0 0 0

00009.M2TS 4609 (0x1201) 0x90 PGS eng (English) 0 0 0 0

00004.M2TS 4113 (0x1011) 0x1B AVC 0,876 107 11 764 72





QUICK SUMMARY:


Disc Title: THE_UNIVERSE_S3_D2_RUS

Disc Size: 40 087 211 000 bytes

Protection: AACS

BD-Java: No

Playlist: 00005.MPLS

Size: 24 576 bytes

Length: 0:44:27

Total Bitrate: 0,00 Mbps

Video: MPEG-4 AVC Video / 94 kbps / 1080p / 23,976 fps / 16:9 / High Profile 4.1

Audio: English / LPCM Audio / 2.0 / 48 kHz / 2304 kbps / 24-bit

Audio: Russian / DTS Audio / 2.0 / 48 kHz / 768 kbps / 24-bit

Subtitle: English / 0,000 kbps

Subtitle: Russian / 0,000 kbps


Disc Title: THE_UNIVERSE_S3_D3_RUS

Disc Size: 40 714 654 164 bytes

Protection: AACS

BD-Java: No

BDInfo: 0.5.2


Notes:


BDINFO HOME AND REPORTS SUBMISSION:

Cinema Squid

http://www.cinemasquid.com/Tools.aspx



INCLUDES FORUMS REPORT FOR:

Unofficial Blu-ray Audio and Video Specifications Thread

http://www.avsforum.com/avs-vb/showthread.php?t=760714

http://forum.blu-ray.com/showthread.php?t=3338



********************

PLAYLIST: 00000.MPLS

********************




Total Video

Title Codec Length Movie Size Disc Size Bitrate Bitrate Main Audio Track Secondary Audio Track

----- ------ ------- -------------- -------------- ------- ------- ------------------ ---------------------

00000.MPLS AVC 0:45:30 0 40 714 654 164 0,00 0,00 LPCM 2.0 2304Kbps (48kHz/24-bit)





DISC INFO:


Disc Title: THE_UNIVERSE_S3_D3_RUS

Disc Size: 40 714 654 164 bytes

Protection: AACS

BD-Java: No

BDInfo: 0.5.2


PLAYLIST REPORT:


Name: 00000.MPLS

Size: 0 bytes

Length: 0:45:30 (h:m:s)

Total Bitrate: 0,00 Mbps

Deion:


VIDEO:


Codec Bitrate Deion

----- ------- -----------

MPEG-4 AVC Video 0 kbps 1080p / 23,976 fps / 16:9 / High Profile 4.1


AUDIO:


Codec Language Bitrate Deion

----- -------- ------- -----------

LPCM Audio English 2304 kbps 2.0 / 48 kHz / 2304 kbps / 24-bit

DTS Audio Russian 768 kbps 2.0 / 48 kHz / 768 kbps / 24-bit


SUBTITLES:


Codec Language Bitrate Deion

----- -------- ------- -----------

Presentation Graphics English 0,000 kbps

Presentation Graphics Russian 0,000 kbps


FILES:


Name Time In Length Size Total Bitrate

---- ------- ------ ---- -------------

00008.M2TS 0:00:00.000 0:45:29.852 0 0

00004.M2TS 0:45:29.852 0:00:01.000 0 0


CHAPTERS:


Number Time In Length Avg Video Rate Max 1-Sec Rate Max 1-Sec Time Max 5-Sec Rate Max 5-Sec Time Max 10Sec Rate Max 10Sec Time Avg Frame Size Max Frame Size Max Frame Time

------ ------- ------ -------------- -------------- -------------- -------------- -------------- -------------- -------------- -------------- -------------- --------------

1 0:00:00.000 0:01:09.736 0 kbps 0 kbps 00:00:00.000 0 kbps 00:00:00.000 0 kbps 00:00:00.000 0 bytes 0 bytes 00:00:00.000

2 0:01:09.736 0:12:29.832 0 kbps 0 kbps 00:00:00.000 0 kbps 00:00:00.000 0 kbps 00:00:00.000 0 bytes 0 bytes 00:00:00.000

3 0:13:39.568 0:11:40.449 0 kbps 0 kbps 00:00:00.000 0 kbps 00:00:00.000 0 kbps 00:00:00.000 0 bytes 0 bytes 00:00:00.000

4 0:25:20.018 0:07:54.932 0 kbps 0 kbps 00:00:00.000 0 kbps 00:00:00.000 0 kbps 00:00:00.000 0 bytes 0 bytes 00:00:00.000

5 0:33:14.951 0:06:17.835 0 kbps 0 kbps 00:00:00.000 0 kbps 00:00:00.000 0 kbps 00:00:00.000 0 bytes 0 bytes 00:00:00.000

6 0:39:32.787 0:05:57.065 0 kbps 0 kbps 00:00:00.000 0 kbps 00:00:00.000 0 kbps 00:00:00.000 0 bytes 0 bytes 00:00:00.000

7 0:45:29.852 0:00:01.001 0 kbps 0 kbps 00:00:00.000 0 kbps 00:00:00.000 0 kbps 00:00:00.000 0 bytes 0 bytes 00:00:00.000


STREAM DIAGNOSTICS:


File PID Type Codec Language Seconds Bitrate Bytes Packets

---- --- ---- ----- -------- -------------- -------------- ------------- -----

00008.M2TS 4113 (0x1011) 0x1B AVC 0 0 0 0

00008.M2TS 4352 (0x1100) 0x82 DTS rus (Russian) 0 0 0 0

00008.M2TS 4353 (0x1101) 0x80 LPCM eng (English) 0 0 0 0

00008.M2TS 4608 (0x1200) 0x90 PGS rus (Russian) 0 0 0 0

00008.M2TS 4609 (0x1201) 0x90 PGS eng (English) 0 0 0 0

00004.M2TS 4113 (0x1011) 0x1B AVC 0 0 0 0





QUICK SUMMARY:


Disc Title: THE_UNIVERSE_S3_D3_RUS

Disc Size: 40 714 654 164 bytes

Protection: AACS

BD-Java: No

Playlist: 00000.MPLS

Size: 0 bytes

Length: 0:45:30

Total Bitrate: 0,00 Mbps

Video: MPEG-4 AVC Video / 0 kbps / 1080p / 23,976 fps / 16:9 / High Profile 4.1

Audio: English / LPCM Audio / 2.0 / 48 kHz / 2304 kbps / 24-bit

Audio: Russian / DTS Audio / 2.0 / 48 kHz / 768 kbps / 24-bit

Subtitle: English / 0,000 kbps

Subtitle: Russian / 0,000 kbps



********************

PLAYLIST: 00002.MPLS

********************




Total Video

Title Codec Length Movie Size Disc Size Bitrate Bitrate Main Audio Track Secondary Audio Track

----- ------ ------- -------------- -------------- ------- ------- ------------------ ---------------------

00002.MPLS AVC 0:44:30 0 40 714 654 164 0,00 0,00 LPCM 2.0 2304Kbps (48kHz/24-bit)





DISC INFO:


Disc Title: THE_UNIVERSE_S3_D3_RUS

Disc Size: 40 714 654 164 bytes

Protection: AACS

BD-Java: No

BDInfo: 0.5.2


PLAYLIST REPORT:


Name: 00002.MPLS

Size: 0 bytes

Length: 0:44:30 (h:m:s)

Total Bitrate: 0,00 Mbps

Deion:


VIDEO:


Codec Bitrate Deion

----- ------- -----------

MPEG-4 AVC Video 0 kbps 1080p / 23,976 fps / 16:9 / High Profile 4.1


AUDIO:


Codec Language Bitrate Deion

----- -------- ------- -----------

LPCM Audio English 2304 kbps 2.0 / 48 kHz / 2304 kbps / 24-bit

DTS Audio Russian 768 kbps 2.0 / 48 kHz / 768 kbps / 24-bit


SUBTITLES:


Codec Language Bitrate Deion

----- -------- ------- -----------

Presentation Graphics English 0,000 kbps

Presentation Graphics Russian 0,000 kbps


FILES:


Name Time In Length Size Total Bitrate

---- ------- ------ ---- -------------

00009.M2TS 0:00:00.000 0:44:29.792 0 0

00004.M2TS 0:44:29.792 0:00:01.000 0 0


CHAPTERS:


Number Time In Length Avg Video Rate Max 1-Sec Rate Max 1-Sec Time Max 5-Sec Rate Max 5-Sec Time Max 10Sec Rate Max 10Sec Time Avg Frame Size Max Frame Size Max Frame Time

------ ------- ------ -------------- -------------- -------------- -------------- -------------- -------------- -------------- -------------- -------------- --------------

1 0:00:00.000 0:01:22.582 0 kbps 0 kbps 00:00:00.000 0 kbps 00:00:00.000 0 kbps 00:00:00.000 0 bytes 0 bytes 00:00:00.000

2 0:01:22.582 0:11:16.133 0 kbps 0 kbps 00:00:00.000 0 kbps 00:00:00.000 0 kbps 00:00:00.000 0 bytes 0 bytes 00:00:00.000

3 0:12:38.716 0:09:25.106 0 kbps 0 kbps 00:00:00.000 0 kbps 00:00:00.000 0 kbps 00:00:00.000 0 bytes 0 bytes 00:00:00.000

4 0:22:03.822 0:09:26.649 0 kbps 0 kbps 00:00:00.000 0 kbps 00:00:00.000 0 kbps 00:00:00.000 0 bytes 0 bytes 00:00:00.000

5 0:31:30.471 0:06:50.243 0 kbps 0 kbps 00:00:00.000 0 kbps 00:00:00.000 0 kbps 00:00:00.000 0 bytes 0 bytes 00:00:00.000

6 0:38:20.715 0:06:09.077 0 kbps 0 kbps 00:00:00.000 0 kbps 00:00:00.000 0 kbps 00:00:00.000 0 bytes 0 bytes 00:00:00.000

7 0:44:29.792 0:00:01.001 0 kbps 0 kbps 00:00:00.000 0 kbps 00:00:00.000 0 kbps 00:00:00.000 0 bytes 0 bytes 00:00:00.000


STREAM DIAGNOSTICS:


File PID Type Codec Language Seconds Bitrate Bytes Packets

---- --- ---- ----- -------- -------------- -------------- ------------- -----

0
Оповестить о раздаче Включить оповещение на почту ( о новом торрент-файле ), когда появится раздача с похожим названием: Вселенная, The Universe

E-Mail адрес:
Внимание: Если вы не авторизованы, то для вас будет создана временная учетная запись (доступ к аккаунту будет прикреплен в письме).
Похожие файлы
Загрузка / Обновление
Категория Фильмы / HD / Full HD / Blu-Ray / 2K / 4K RSS лента
Добавлен (4 года, 1 месяц назад)
Просмотров 90 раз (a)
Взят 0 раз (a)
Файлы 289, 112.62 GB (120 927 784 860 байт)
Раздал ViKa  (Искать торренты)
Участники
Раздают (отдают): 0 (1), Скачивают (качают): 0 (2), Завершено: 0 (0)
Просматривают

« Гипнотизер / Hypnotisren / The hypnotist (2012) BDRip 1080p | L1 -†- ¿? -†- Вселенная / The Universe [S03] (2008) BDRip 1080p | A »

:: Список Комментариев
Нет комментариев.

 Нет комментариев

Поблагодарите нас, взамен, мы будем заливать еще больше раздач!


Счетчики
Рейтинг@Mail.ru Яндекс.Метрика


Поделитесь в социальных сетях


Быстрый Поиск





Спасибо Вам
Мы благодарны этим людям в поддержке сайта:
oiproger, ybrf402
Попади и ты в этот блок, поставь оценку 5 и получи 300 MB к отдаче:
Войти на сайт сейчас.

Правообладателям
По всем вопросам сотрудничества, удаления авторских файлов "пачкой", просьба отписаться по адреcу:
abuse@muz-tracker.net

Наши группы в VK, OK