Самые активные релизы за неделю
Музыка / Мультимедиа Картинки / Фото Сериалы Фильмы / AVI / MKV / MP4 Фильмы / HD / Full HD / Blu-Ray / 2K / 4K
Top-600 Best Blues & Rock - Collection ( Blues / 2012 )
  • Top-600 Best Blues & Rock - Collection ( Blues / 2012 )
  • Reggae Sound System ( Reggae / 2017 )
  • Выше облаков. Русский сборник поп музыки ( Поп / 2017 )
  • / Dance / 2017
  • Популярные новинки (№7) ( Поп  / 2017 )
  • Время-времечко. Супер сборник русского шансона ( Шансон / 2017 )
  • Best Chillout Vol.30 ( Chillout / 2017 )
  • Relaxing Instrumental Jazz Music ( Jazz / 2017 )
  • Woody Herman - Verve Jazz Masters 54 (1996) MP3
  • Hardsyle Music For Sports Games ( Club / 2017 )
  • Magic Island - Music For Balearic People (Vol.8, Mixed By Roger Shah) (2CD) ( Trance / 2017 )
  • NME Hardstyle: Energy Hit Music Only ( Club / 2017 )


Популярные персоны кино из торрент-раздачи

:: Детали раздачи
Раздача является мультитрекерной — учтите, количество раздающих не будет совпадать с количеством участников на сайте (скачивание на клиентской стороне зависит от настроек µTorrent клиент программы, настройки -> Включить DHT, Обмен пирами и Поиск лок-х пиров).
Если висит надпись, пиры по нулям - не бойтесь, возможность скачать повторно раздачу - есть. Попробуйте, в случае отказа - прокоментируйте или нажмите на "Позвать скачавших".
Данная раздача является свободной — учитывается только количество отданного, количество скачанного не фиксируется.

Чужой: Антология / Alien: Antology (1979-1997) BDRip 1080p | Director`s cut, Special Edition Золотой торрент

Скачать Скачать .torrent файл (основная ссылка для скачивания файла)
Смотреть / Слушать онлайн просмотр (ссылка для просмотра файла через плагин 'Torrent Stream')
Magnet-ссылка (альтернативная ссылка для скачивания файла)
Теги / Метки ужасы, фантастика, 1979
Описание
Чужой: Антология / Alien: Antology (1979-1997) BDRip 1080p  | Director`s cut, Special Edition
http://firepic.org/images/2012-03/23/mge1ol3khb3u.png


Чужой: Антология (Режиссёрская версия, Специальные издания) / Alien: Antology (Director`s cut, Special Edition) (1979-1997) BDrip 1080p от NOLIMITS-TEAM



Чужой / Alien (Director’s cut) (1979) BDrip 1080p NOLIMITS-TEAM:


General

Unique ID : 199804362736906987756527509732787857253 (0x9650EBA74ABA0F2C853389E78E91A765)

Complete name : G:Alien Antology (1979-1997)ALIEN.1979Alien (1979).BDrip.1080p.NOLIMITS-TEAM.mkv

Format : Matroska

Format version : Version 2

File size : 4.36 GiB

Duration : 1h 55mn

Overall bit rate : 5 394 Kbps

Movie name : Rip by kozak (NOLIMITS-TEAM.RU)

Encoded date : UTC 2012-03-23 12:27:44

Writing application : mkvmerge v5.4.0 ('Piper') built on Mar 10 2012 13:34:39

Writing library : libebml v1.2.3 + libmatroska v1.3.0


Video

ID : 1

Format : AVC

Format/Info : Advanced Video Codec

Format profile : High@L4.1

Format settings, CABAC : Yes

Format settings, ReFrames : 4 frames

Codec ID : V_MPEG4/ISO/AVC

Duration : 1h 55mn

Bit rate : 5 020 Kbps

Width : 1 920 pixels

Height : 816 pixels

Display aspect ratio : 2.35:1

Frame rate : 23.976 fps

Color space : YUV

Chroma subsampling : 4:2:0

Bit depth : 8 bits

Scan type : Progressive

Bits/(Pixel*Frame) : 0.134

Stream size : 3.97 GiB (91%)

Title : Чужой (1979).BDrip.1080p.NOLIMITS-TEAM

Writing library : x264 core 120 r2146 bcd41db

Encoding settings : cabac=1 / ref=4 / deblock=1:-3:-2 / analyse=0x3:0x133 / me=umh / subme=10 / psy=1 / psy_rd=1.00:0.15 / mixed_ref=1 / me_range=32 / chroma_me=1 / trellis=2 / 8x8dct=1 / cqm=0 / deadzone=21,11 / fast_pskip=0 / chroma_qp_offset=-3 / threads=12 / sliced_threads=0 / slices=4 / nr=0 / decimate=0 / interlaced=0 / bluray_compat=0 / constrained_intra=0 / bframes=5 / b_pyramid=2 / b_adapt=2 / b_bias=0 / direct=3 / weightb=1 / open_gop=0 / weightp=2 / keyint=240 / keyint_min=24 / scenecut=40 / intra_refresh=0 / rc_lookahead=60 / rc=2pass / mbtree=1 / bitrate=5020 / ratetol=2.0 / qcomp=0.60 / qpmin=0 / qpmax=51 / qpstep=4 / cplxblur=20.0 / qblur=0.5 / ip_ratio=1.40 / aq=2:1.00

Language : English

Default : Yes

Forced : No


Audio

ID : 2

Format : AC-3

Format/Info : Audio Coding 3

Mode extension : CM (complete main)

Codec ID : A_AC3

Duration : 1h 55mn

Bit rate mode : Constant

Bit rate : 384 Kbps

Channel(s) : 6 channels

Channel positions : Front: L C R, Side: L R, LFE

Sampling rate : 48.0 KHz

Bit depth : 16 bits

Compression mode : Lossy

Stream size : 318 MiB (7%)

Title : Дубляж

Language : Russian

Default : Yes

Forced : No


Text #1

ID : 3

Format : UTF-8

Codec ID : S_TEXT/UTF8

Codec ID/Info : UTF-8 Plain Text

Title : Full

Language : Russian

Default : Yes

Forced : No


Text #2

ID : 4

Format : UTF-8

Codec ID : S_TEXT/UTF8

Codec ID/Info : UTF-8 Plain Text

Title : Full

Language : Ukrainian

Default : No

Forced : No


Text #3

ID : 5

Format : UTF-8

Codec ID : S_TEXT/UTF8

Codec ID/Info : UTF-8 Plain Text

Title : Гоблин - на расширенные моменты

Language : Russian

Default : No

Forced : No


Text #4

ID : 6

Format : UTF-8

Codec ID : S_TEXT/UTF8

Codec ID/Info : UTF-8 Plain Text

Title : Full

Language : English

Default : No

Forced : No


Menu

00:00:00.000 : :Chapter 01

00:02:01.121 : :Chapter 02

00:04:40.154 : :Chapter 03

00:07:55.850 : :Chapter 04

00:09:10.508 : :Chapter 05

00:12:40.426 : :Chapter 06

00:14:16.105 : :Chapter 07

00:20:05.912 : :Chapter 08

00:23:22.651 : :Chapter 09

00:25:05.253 : :Chapter 10

00:27:50.877 : :Chapter 11

00:31:51.826 : :Chapter 12

00:35:32.922 : :Chapter 13

00:37:04.347 : :Chapter 14

00:40:33.889 : :Chapter 15

00:43:26.520 : :Chapter 16

00:47:28.303 : :Chapter 17

00:50:06.128 : :Chapter 18

00:51:44.309 : :Chapter 19

00:54:24.677 : :Chapter 20

00:59:01.746 : :Chapter 21

01:00:26.873 : :Chapter 22

01:03:36.312 : :Chapter 23

01:08:18.719 : :Chapter 24

01:10:04.950 : :Chapter 25

01:12:52.409 : :Chapter 26

01:14:33.927 : :Chapter 27

01:17:14.713 : :Chapter 28

01:19:02.904 : :Chapter 29

01:22:34.282 : :Chapter 30

01:26:39.235 : :Chapter 31

01:28:49.573 : :Chapter 32

01:30:48.734 : :Chapter 33

01:32:39.762 : :Chapter 34

01:34:23.782 : :Chapter 35

01:37:45.150 : :Chapter 36

01:39:14.448 : :Chapter 37

01:43:28.243 : :Chapter 38

01:46:17.954 : :Chapter 39

01:53:05.611 : :Chapter 40

01:55:49.650 : :Chapter 41



Скриншоты:



Скринлист:




Чужие / Aliens (Special Edition) (1986) BDrip 1080p NOLIMITS-TEAM :


General

Unique ID : 217933857109948673635614752854437957079 (0xA3F488BCC4DB597392EF9E5E7D1A8DD7)

Complete name : G:Alien Antology (1979-1997)ALIENS.1986Aliens (1986).BDrip.1080p.NOLIMITS-TEAM.mkv

Format : Matroska

Format version : Version 2

File size : 4.37 GiB

Duration : 2h 34mn

Overall bit rate : 4 050 Kbps

Movie name : Rip by kozak (NOLIMITS-TEAM.RU)

Encoded date : UTC 2012-03-23 17:25:27

Writing application : mkvmerge v5.4.0 ('Piper') built on Mar 10 2012 13:34:39

Writing library : libebml v1.2.3 + libmatroska v1.3.0


Video

ID : 1

Format : AVC

Format/Info : Advanced Video Codec

Format profile : High@L4.1

Format settings, CABAC : Yes

Format settings, ReFrames : 4 frames

Codec ID : V_MPEG4/ISO/AVC

Duration : 2h 34mn

Bit rate : 3 665 Kbps

Width : 1 920 pixels

Height : 1 040 pixels

Display aspect ratio : 1.850

Frame rate : 23.976 fps

Color space : YUV

Chroma subsampling : 4:2:0

Bit depth : 8 bits

Scan type : Progressive

Bits/(Pixel*Frame) : 0.077

Stream size : 3.87 GiB (89%)

Title : Чужие (1986).BDrip.1080p.NOLIMITS-TEAM

Writing library : x264 core 120 r2164 da19765

Encoding settings : cabac=1 / ref=4 / deblock=1:-3:-2 / analyse=0x3:0x133 / me=umh / subme=10 / psy=1 / psy_rd=1.00:0.15 / mixed_ref=1 / me_range=32 / chroma_me=1 / trellis=2 / 8x8dct=1 / cqm=0 / deadzone=21,11 / fast_pskip=0 / chroma_qp_offset=-3 / threads=12 / sliced_threads=0 / slices=4 / nr=0 / decimate=0 / interlaced=0 / bluray_compat=0 / constrained_intra=0 / bframes=5 / b_pyramid=2 / b_adapt=2 / b_bias=0 / direct=3 / weightb=1 / open_gop=0 / weightp=2 / keyint=240 / keyint_min=24 / scenecut=40 / intra_refresh=0 / rc_lookahead=60 / rc=2pass / mbtree=1 / bitrate=3665 / ratetol=2.0 / qcomp=0.60 / qpmin=0 / qpmax=51 / qpstep=4 / cplxblur=20.0 / qblur=0.5 / ip_ratio=1.40 / aq=2:1.00

Language : English

Default : Yes

Forced : No


Audio

ID : 2

Format : AC-3

Format/Info : Audio Coding 3

Mode extension : CM (complete main)

Codec ID : A_AC3

Duration : 2h 34mn

Bit rate mode : Constant

Bit rate : 384 Kbps

Channel(s) : 6 channels

Channel positions : Front: L C R, Side: L R, LFE

Sampling rate : 48.0 KHz

Bit depth : 16 bits

Compression mode : Lossy

Stream size : 424 MiB (9%)

Title : Дубляж

Language : Russian

Default : Yes

Forced : No


Text #1

ID : 3

Format : UTF-8

Codec ID : S_TEXT/UTF8

Codec ID/Info : UTF-8 Plain Text

Title : Full

Language : Russian

Default : Yes

Forced : Yes


Text #2

ID : 4

Format : UTF-8

Codec ID : S_TEXT/UTF8

Codec ID/Info : UTF-8 Plain Text

Title : Full

Language : Ukrainian

Default : No

Forced : No


Text #3

ID : 5

Format : UTF-8

Codec ID : S_TEXT/UTF8

Codec ID/Info : UTF-8 Plain Text

Title : Full

Language : English

Default : No

Forced : No


Menu

00:00:00.000 : :Chapter 01

00:02:06.751 : :Chapter 02

00:05:15.732 : :Chapter 03

00:08:34.347 : :Chapter 04

00:10:52.109 : :Chapter 05

00:15:13.621 : :Chapter 06

00:17:25.002 : :Chapter 07

00:20:54.127 : :Chapter 08

00:25:02.500 : :Chapter 09

00:25:57.472 : :Chapter 10

00:30:03.718 : :Chapter 11

00:32:53.888 : :Chapter 12

00:35:56.862 : :Chapter 13

00:38:03.531 : :Chapter 14

00:45:40.070 : :Chapter 15

00:52:28.520 : :Chapter 16

00:54:48.076 : :Chapter 17

00:56:09.115 : :Chapter 18

01:00:11.107 : :Chapter 19

01:04:47.508 : :Chapter 20

01:10:10.998 : :Chapter 21

01:12:51.992 : :Chapter 22

01:16:22.869 : :Chapter 23

01:21:22.252 : :Chapter 24

01:23:17.200 : :Chapter 25

01:26:21.134 : :Chapter 26

01:31:22.059 : :Chapter 27

01:34:37.421 : :Chapter 28

01:37:25.255 : :Chapter 29

01:38:40.706 : :Chapter 30

01:41:23.243 : :Chapter 31

01:45:03.463 : :Chapter 32

01:47:15.553 : :Chapter 33

01:51:41.402 : :Chapter 34

01:52:58.604 : :Chapter 35

02:02:10.364 : :Chapter 36

02:05:54.046 : :Chapter 37

02:07:41.987 : :Chapter 38

02:13:15.528 : :Chapter 39

02:17:29.616 : :Chapter 40

02:22:24.702 : :Chapter 41

02:23:16.712 : :Chapter 42

02:30:16.006 : :Chapter 43

02:31:36.462 : :Chapter 44

02:34:26.715 : :Chapter 45



Скриншоты:



Скринлист:




Чужой 3 / Alien 3 (Special Edition) (1992) BDrip 1080p NOLIMITS-TEAM:


General

Unique ID : 174725560275805098097993740850297693563 (0x8372EB3A4F8B6B90BE2DC321EFEDE57B)

Complete name : G:Alien Antology (1979-1997)ALIENS.1992Alien3 (1992).BDrip.1080p.NOLIMITS-TEAM.mkv

Format : Matroska

Format version : Version 2

File size : 4.36 GiB

Duration : 2h 24mn

Overall bit rate : 4 309 Kbps

Movie name : Rip by kozak (NOLIMITS-TEAM.RU

Encoded date : UTC 2012-03-23 18:57:47

Writing application : mkvmerge v5.4.0 ('Piper') built on Mar 10 2012 13:34:39

Writing library : libebml v1.2.3 + libmatroska v1.3.0


Video

ID : 1

Format : AVC

Format/Info : Advanced Video Codec

Format profile : High@L4.1

Format settings, CABAC : Yes

Format settings, ReFrames : 4 frames

Codec ID : V_MPEG4/ISO/AVC

Duration : 2h 24mn

Bit rate : 3 935 Kbps

Width : 1 920 pixels

Height : 816 pixels

Display aspect ratio : 2.35:1

Frame rate : 23.976 fps

Color space : YUV

Chroma subsampling : 4:2:0

Bit depth : 8 bits

Scan type : Progressive

Bits/(Pixel*Frame) : 0.105

Stream size : 3.89 GiB (89%)

Title : Чужой3 (1992).BDrip.1080p.NOLIMITS-TEAM

Writing library : x264 core 122 r2183 c522ad1

Encoding settings : cabac=1 / ref=4 / deblock=1:-3:-2 / analyse=0x3:0x133 / me=umh / subme=10 / psy=1 / psy_rd=1.00:0.15 / mixed_ref=1 / me_range=32 / chroma_me=1 / trellis=2 / 8x8dct=1 / cqm=0 / deadzone=21,11 / fast_pskip=0 / chroma_qp_offset=-3 / threads=12 / sliced_threads=0 / slices=4 / nr=0 / decimate=0 / interlaced=0 / bluray_compat=0 / constrained_intra=0 / bframes=5 / b_pyramid=2 / b_adapt=2 / b_bias=0 / direct=3 / weightb=1 / open_gop=0 / weightp=2 / keyint=240 / keyint_min=24 / scenecut=40 / intra_refresh=0 / rc_lookahead=60 / rc=2pass / mbtree=1 / bitrate=3935 / ratetol=2.0 / qcomp=0.60 / qpmin=0 / qpmax=51 / qpstep=4 / cplxblur=20.0 / qblur=0.5 / ip_ratio=1.40 / aq=2:1.00

Language : English

Default : Yes

Forced : No


Audio

ID : 2

Format : AC-3

Format/Info : Audio Coding 3

Mode extension : CM (complete main)

Codec ID : A_AC3

Duration : 2h 24mn

Bit rate mode : Constant

Bit rate : 384 Kbps

Channel(s) : 6 channels

Channel positions : Front: L C R, Side: L R, LFE

Sampling rate : 48.0 KHz

Bit depth : 16 bits

Compression mode : Lossy

Stream size : 398 MiB (9%)

Title : Дубляж

Language : Russian

Default : Yes

Forced : No


Text #1

ID : 3

Format : UTF-8

Codec ID : S_TEXT/UTF8

Codec ID/Info : UTF-8 Plain Text

Title : Full

Language : Russian

Default : Yes

Forced : No


Text #2

ID : 4

Format : UTF-8

Codec ID : S_TEXT/UTF8

Codec ID/Info : UTF-8 Plain Text

Title : на расширенные моменты - Гоблин

Language : Russian

Default : No

Forced : No


Text #3

ID : 5

Format : UTF-8

Codec ID : S_TEXT/UTF8

Codec ID/Info : UTF-8 Plain Text

Title : Full

Language : Ukrainian

Default : No

Forced : No


Text #4

ID : 6

Format : UTF-8

Codec ID : S_TEXT/UTF8

Codec ID/Info : UTF-8 Plain Text

Title : Full

Language : English

Default : No

Forced : No


Menu

00:00:00.000 : :Chapter 01

00:03:42.972 : :Chapter 02

00:04:31.479 : :Chapter 03

00:09:29.694 : :Chapter 04

00:12:13.399 : :Chapter 05

00:15:01.442 : :Chapter 06

00:16:33.701 : :Chapter 07

00:24:27.924 : :Chapter 08

00:26:31.756 : :Chapter 09

00:31:07.740 : :Chapter 10

00:33:12.824 : :Chapter 11

00:35:53.150 : :Chapter 12

00:37:43.260 : :Chapter 13

00:43:32.735 : :Chapter 14

00:46:11.268 : :Chapter 15

00:49:15.285 : :Chapter 16

00:51:46.811 : :Chapter 17

00:55:52.056 : :Chapter 18

00:59:33.319 : :Chapter 19

01:02:51.434 : :Chapter 20

01:07:33.257 : :Chapter 21

01:11:03.634 : :Chapter 22

01:14:12.823 : :Chapter 23

01:17:08.874 : :Chapter 24

01:19:05.699 : :Chapter 25

01:24:41.034 : :Chapter 26

01:26:19.507 : :Chapter 27

01:28:02.860 : :Chapter 28

01:29:09.927 : :Chapter 29

01:34:12.771 : :Chapter 30

01:37:18.707 : :Chapter 31

01:39:29.254 : :Chapter 32

01:42:47.452 : :Chapter 33

01:46:07.444 : :Chapter 34

01:49:57.715 : :Chapter 35

01:54:04.796 : :Chapter 36

01:56:30.024 : :Chapter 37

01:58:32.897 : :Chapter 38

02:05:23.807 : :Chapter 39

02:08:09.181 : :Chapter 40

02:10:50.175 : :Chapter 41

02:12:42.913 : :Chapter 42

02:16:18.461 : :Chapter 43

02:19:09.966 : :Chapter 44

02:24:52.391 : :Chapter 45



Скриншоты:



Скринлист:




Чужой 4: Воскрешение / Alien: Resurrection (Special Edition) (1997) BDrip 1080p NOLIMITS-TEAM:


General

Unique ID : 242679863860337403457856533783554196197 (0xB6927111572741BB84B328E37B4282E5)

Complete name : G:Alien Antology (1979-1997)ALIEN.1997Alien.Resurrection (1997).BDrip.1080p.NOLIMITS-TEAM.mkv

Format : Matroska

Format version : Version 2

File size : 4.36 GiB

Duration : 1h 56mn

Overall bit rate : 5 376 Kbps

Movie name : Rip by kozak (NOLIMITS-TEAM.RU)

Encoded date : UTC 2012-03-23 20:07:04

Writing application : mkvmerge v5.4.0 ('Piper') built on Mar 10 2012 13:34:39

Writing library : libebml v1.2.3 + libmatroska v1.3.0


Video

ID : 1

Format : AVC

Format/Info : Advanced Video Codec

Format profile : High@L4.1

Format settings, CABAC : Yes

Format settings, ReFrames : 4 frames

Codec ID : V_MPEG4/ISO/AVC

Duration : 1h 56mn

Bit rate : 5 005 Kbps

Width : 1 920 pixels

Height : 816 pixels

Display aspect ratio : 2.35:1

Frame rate : 23.976 fps

Color space : YUV

Chroma subsampling : 4:2:0

Bit depth : 8 bits

Scan type : Progressive

Bits/(Pixel*Frame) : 0.133

Stream size : 3.96 GiB (91%)

Writing library : x264 core 122 r2183 c522ad1

Encoding settings : cabac=1 / ref=4 / deblock=1:-3:-2 / analyse=0x3:0x133 / me=umh / subme=10 / psy=1 / psy_rd=1.00:0.15 / mixed_ref=1 / me_range=32 / chroma_me=1 / trellis=2 / 8x8dct=1 / cqm=0 / deadzone=21,11 / fast_pskip=0 / chroma_qp_offset=-3 / threads=12 / sliced_threads=0 / slices=4 / nr=0 / decimate=0 / interlaced=0 / bluray_compat=0 / constrained_intra=0 / bframes=5 / b_pyramid=2 / b_adapt=2 / b_bias=0 / direct=3 / weightb=1 / open_gop=0 / weightp=2 / keyint=240 / keyint_min=24 / scenecut=40 / intra_refresh=0 / rc_lookahead=60 / rc=2pass / mbtree=1 / bitrate=5005 / ratetol=2.0 / qcomp=0.60 / qpmin=0 / qpmax=51 / qpstep=4 / cplxblur=20.0 / qblur=0.5 / ip_ratio=1.40 / aq=2:1.00

Language : English

Default : Yes

Forced : No


Audio

ID : 2

Format : AC-3

Format/Info : Audio Coding 3

Mode extension : CM (complete main)

Codec ID : A_AC3

Duration : 1h 56mn

Bit rate mode : Constant

Bit rate : 384 Kbps

Channel(s) : 6 channels

Channel positions : Front: L C R, Side: L R, LFE

Sampling rate : 48.0 KHz

Bit depth : 16 bits

Compression mode : Lossy

Stream size : 319 MiB (7%)

Title : Чужой 4: Воскрешение (1997).BDrip.1080p.NOLIMITS-TEAM

Default : Yes

Forced : No


Text #1

ID : 3

Format : UTF-8

Codec ID : S_TEXT/UTF8

Codec ID/Info : UTF-8 Plain Text

Title : Full

Language : Russian

Default : Yes

Forced : No


Text #2

ID : 4

Format : UTF-8

Codec ID : S_TEXT/UTF8

Codec ID/Info : UTF-8 Plain Text

Title : на расширенные моменты - Гоблин

Language : Russian

Default : No

Forced : No


Text #3

ID : 5

Format : UTF-8

Codec ID : S_TEXT/UTF8

Codec ID/Info : UTF-8 Plain Text

Title : Full

Language : Ukrainian

Default : No

Forced : No


Text #4

ID : 6

Format : UTF-8

Codec ID : S_TEXT/UTF8

Codec ID/Info : UTF-8 Plain Text

Title : Full

Language : English

Default : No

Forced : No


Menu

00:00:00.000 : :Chapter 01

00:03:27.332 : :Chapter 02

00:04:26.307 : :Chapter 03

00:06:30.139 : :Chapter 04

00:08:49.278 : :Chapter 05

00:12:06.225 : :Chapter 06

00:15:03.527 : :Chapter 07

00:19:25.539 : :Chapter 08

00:21:37.838 : :Chapter 09

00:24:12.868 : :Chapter 10

00:26:19.995 : :Chapter 11

00:30:08.765 : :Chapter 12

00:32:19.562 : :Chapter 13

00:37:16.692 : :Chapter 14

00:39:26.739 : :Chapter 15

00:42:36.679 : :Chapter 16

00:46:30.662 : :Chapter 17

00:49:20.791 : :Chapter 18

00:53:35.378 : :Chapter 19

00:57:04.963 : :Chapter 20

01:03:01.652 : :Chapter 21

01:07:40.431 : :Chapter 22

01:19:37.147 : :Chapter 23

01:22:07.297 : :Chapter 24

01:28:21.421 : :Chapter 25

01:31:45.916 : :Chapter 26

01:34:15.524 : :Chapter 27

01:38:58.390 : :Chapter 28

01:40:45.539 : :Chapter 29

01:43:49.848 : :Chapter 30

01:47:52.299 : :Chapter 31

01:49:51.418 : :Chapter 32

01:56:08.419 : :Chapter 33



Скриншоты:



Скринлист:





Уважаемые пользователи, не нужно заказывать фильмы в комментариях. Хотите заказать релиз - воспользуйтесь Столом Заказов на самом сайте Релиз-Группы.

С уважением, Администрация сайта NoLimits-Team
Оповестить о раздаче Включить оповещение на почту ( о новом торрент-файле ), когда появится раздача с похожим названием: Чужой: Антология, Alien: Antology

E-Mail адрес:
Внимание: Если вы не авторизованы, то для вас будет создана временная учетная запись (доступ к аккаунту будет прикреплен в письме).
Похожие файлы
Загрузка / Обновление
Категория Фильмы / HD / Full HD / Blu-Ray / 2K / 4K RSS лента
Добавлен (4 года, 1 месяц назад)
Просмотров 83 раз (a)
Взят 3 раз (a)
Файлы 23, 24.40 GB (26 199 134 772 байт)
Раздал ViKa  (Искать торренты)
Участники
Скачивают (качают): 0 (1), Завершено: 0 (0)
Просматривают

« Чужой: Антология / Alien: Anthology (1979-1997) BDRip 1080p | Director's Cut, Special Edition -†- ¿? -†- Седьмая группа / Группа 7 / Grupo 7 / Unit 7 (2012) BDRip 1080p | Лицензия »

:: Список Комментариев
Нет комментариев.

 Нет комментариев

Поблагодарите нас, взамен, мы будем заливать еще больше раздач!


Счетчики
Рейтинг@Mail.ru Яндекс.Метрика


Поделитесь в социальных сетях


Быстрый Поиск





Спасибо Вам
Мы благодарны этим людям в поддержке сайта:
Нет данных для показа
Попади и ты в этот блок, поставь оценку 5 и получи 300 MB к отдаче:
Войти на сайт сейчас.

Правообладателям
По всем вопросам сотрудничества, удаления авторских файлов "пачкой", просьба отписаться по адреcу:
abuse@muz-tracker.net

Наши группы в VK, OK