Самые активные релизы за неделю
Музыка / Мультимедиа Мультфильмы
Global Chill ( Chillout / 2016 )
  • Global Chill ( Chillout / 2016 )
  • XXXL Clubничка (№300) ( Pop / 2016 )
  • VA - All I Want For Christmas Is Bass 2016 - 2017 [2016 / MP3 / 320] [House]
  • VA   -   Sexy Chill-Out Occasion   Vol. 2
  • VA - Promo DJ TOP 100 Remixes Spring 2016
  • The Motans - Versus [2016 / MP3 / 320] [Fusion]
  • Андрей Саватеев - Карман удачи
  • VA - TOP 100 Club Tracks (April)
  • VA - LUXEmusic - Dance Super Chart Vol.66
  • VA - Top 100 Best Trap
  • VA   -   NOW That's What I Call Music!  Vol.58
  • Recreation Areas Chill (Vol.2) ( Chillout / 2016 )

:: Детали раздачи
Раздача является мультитрекерной — учтите, количество раздающих не будет совпадать с количеством участников на сайте (скачивание на клиентской стороне зависит от настроек µTorrent клиент программы, настройки -> Включить DHT, Обмен пирами и Поиск лок-х пиров).
Если висит надпись, пиры по нулям - не бойтесь, возможность скачать повторно раздачу - есть. Попробуйте, в случае отказа - прокоментируйте или нажмите на "Позвать скачавших".
Данная раздача является свободной — учитывается только количество отданного, количество скачанного не фиксируется.

Чужой: Антология / Alien: Anthology (1979-1997) BDRip 1080p | Director's Cut, Special Edition Золотой торрент

Скачать Скачать .torrent файл
Смотреть / Слушать онлайн просмотр
Magnet-ссылка
Теги / Метки боевик, фантастика, триллер, 1979
Описание

Жанр: Боевик, фантастика, триллер
Год выпуска: 1979 / 1986 / 1992 / 1997

Продолжительность: 01:55:50 / 02:34:27 / 02:24:53 / 01:56:09

Режиссёр: Ридли Скотт, Джеймс Кэмерон, Дэвид Финчер, Жан-Пьер Жёне


Чужой / Alien (1979) BDRip 1080p | Director’s cut

x264 [info]: frame I:1254 Avg QP:16.31 size:158513

x264 [info]: frame P:52329 Avg QP:19.32 size: 74910

x264 [info]: frame B:113046 Avg QP:20.91 size: 34116



General

Unique ID : 234446957704238277681446762808359388003 (0xB060D7747E7996E4A2EED49155420363)

Complete name : E:Alien.Anthology.1979-1997.x264.BDRip.1080pAlien.1979.x264.BDRip.1080p.mkv

Format : Matroska

Format version : Version 4 / Version 2

File size : 9.50 GiB

Duration : 1h 55mn

Overall bit rate : 11.7 Mbps

Encoded date : UTC 2013-04-05 18:43:06

Writing application : mkvmerge v6.1.0 ('Old Devil') built on Mar 2 2013 14:32:37

Writing library : libebml v1.3.0 + libmatroska v1.4.0


Video

ID : 1

Format : AVC

Format/Info : Advanced Video Codec

Format profile : High@L4.1

Format settings, CABAC : Yes

Format settings, ReFrames : 5 frames

Codec ID : V_MPEG4/ISO/AVC

Duration : 1h 55mn

Bit rate : 9 186 Kbps

Width : 1 920 pixels

Height : 820 pixels

Display aspect ratio : 2.35:1

Frame rate mode : Constant

Frame rate : 23.976 fps

Color space : YUV

Chroma subsampling : 4:2:0

Bit depth : 8 bits

Scan type : Progressive

Bits/(Pixel*Frame) : 0.243

Stream size : 7.24 GiB (76%)

Writing library : x264 core 130 r2273 b3065e6

Encoding settings : cabac=1 / ref=5 / deblock=1:-3:-3 / analyse=0x3:0x133 / me=tesa / subme=11 / psy=1 / psy_rd=1.00:0.10 / mixed_ref=1 / me_range=32 / chroma_me=1 / trellis=2 / 8x8dct=1 / cqm=0 / deadzone=21,11 / fast_pskip=0 / chroma_qp_offset=-3 / threads=12 / lookahead_threads=1 / sliced_threads=0 / nr=0 / decimate=0 / interlaced=0 / bluray_compat=0 / constrained_intra=0 / bframes=3 / b_pyramid=2 / b_adapt=2 / b_bias=0 / direct=3 / weightb=1 / open_gop=0 / weightp=2 / keyint=240 / keyint_min=23 / scenecut=40 / intra_refresh=0 / rc_lookahead=60 / rc=2pass / mbtree=1 / bitrate=9186 / ratetol=1.0 / qcomp=0.60 / qpmin=0 / qpmax=69 / qpstep=4 / cplxblur=20.0 / qblur=0.5 / ip_ratio=1.40 / aq=1:1.00

Language : English

Default : Yes

Forced : No


Audio #1

ID : 2

Format : AC-3

Format/Info : Audio Coding 3

Mode extension : CM (complete main)

Format settings, Endianness : Big

Codec ID : A_AC3

Duration : 1h 55mn

Bit rate mode : Constant

Bit rate : 640 Kbps

Channel(s) : 6 channels

Channel positions : Front: L C R, Side: L R, LFE

Sampling rate : 48.0 KHz

Bit depth : 16 bits

Compression mode : Lossy

Stream size : 530 MiB (5%)

Title : AC3 5.1ch 640 kbps - Дубляж, Blu-ray CEE

Language : Russian

Default : Yes

Forced : No


Audio #2

ID : 3

Format : AC-3

Format/Info : Audio Coding 3

Mode extension : CM (complete main)

Format settings, Endianness : Big

Codec ID : A_AC3

Duration : 1h 55mn

Bit rate mode : Constant

Bit rate : 640 Kbps

Channel(s) : 6 channels

Channel positions : Front: L C R, Side: L R, LFE

Sampling rate : 48.0 KHz

Bit depth : 16 bits

Compression mode : Lossy

Stream size : 530 MiB (5%)

Title : AC3 5.1ch 640 kbps - Двухголосый, LDV

Language : Russian

Default : No

Forced : No


Audio #3

ID : 4

Format : AC-3

Format/Info : Audio Coding 3

Mode extension : CM (complete main)

Format settings, Endianness : Big

Codec ID : A_AC3

Duration : 1h 55mn

Bit rate mode : Constant

Bit rate : 640 Kbps

Channel(s) : 6 channels

Channel positions : Front: L C R, Side: L R, LFE

Sampling rate : 48.0 KHz

Bit depth : 16 bits

Compression mode : Lossy

Stream size : 530 MiB (5%)

Title : AC3 5.1ch 640 kbps - Авторский, А. Гаврилов

Language : Russian

Default : No

Forced : No


Audio #4

ID : 5

Format : AC-3

Format/Info : Audio Coding 3

Mode extension : CM (complete main)

Format settings, Endianness : Big

Codec ID : A_AC3

Duration : 1h 55mn

Bit rate mode : Constant

Bit rate : 640 Kbps

Channel(s) : 6 channels

Channel positions : Front: L C R, Side: L R, LFE

Sampling rate : 48.0 KHz

Bit depth : 16 bits

Compression mode : Lossy

Stream size : 530 MiB (5%)

Title : AC3 5.1ch 640 kbps - Английский

Language : English

Default : No

Forced : No


Text #1

ID : 6

Format : UTF-8

Codec ID : S_TEXT/UTF8

Codec ID/Info : UTF-8 Plain Text

Title : Русские

Language : Russian

Default : No

Forced : No


Text #2

ID : 7

Format : UTF-8

Codec ID : S_TEXT/UTF8

Codec ID/Info : UTF-8 Plain Text

Title : Английские [SDH]

Language : English

Default : No

Forced : No


Menu

00:00:00.000 : en:Main Titles

00:02:01.120 : en:Auto Pilot

00:04:40.153 : en:Awakening

00:07:55.849 : en:Mu-th-ur

00:09:10.508 : en:Nostromo Re-Routed

00:12:40.425 : en:Locating the Source

00:14:16.105 : en:Answering the Call

00:20:05.912 : en:Walking Distance

00:23:22.651 : en:Proceeding Blindly

00:25:05.252 : en:Dark Horizons

00:27:50.876 : en:A Word of Warning

00:31:51.826 : en:Kane's Descent

00:35:32.922 : en:Surface Tension

00:37:04.347 : en:Facehugger

00:40:33.889 : en:Acid

00:43:26.518 : en:Standard Procedure

00:47:28.302 : en:The Missing Guest

00:50:06.128 : en:It Has to Go Back

00:51:44.309 : en:Long Journey Ahead

00:54:24.677 : en:The Last Supper

00:59:01.746 : en:On the Hunt

01:00:26.872 : en:"Stick Together"

01:03:36.311 : en:"Here Jonesy"

01:08:18.719 : en:"Kane's Son"

01:10:04.948 : en:Into the Air Ducts

01:12:52.408 : en:The Third Junction

01:14:33.926 : en:No Blood, No Dallas

01:17:14.712 : en:Special Order 937

01:19:02.904 : en:Ash Attacks

01:22:34.282 : en:Crew Expendable

01:26:39.234 : en:Escape Plan

01:28:49.573 : en:"Kitty, Kitty, Kitty"

01:30:48.734 : en:Cornered

01:32:39.761 : en:Auto-Destruct Initiated

01:34:23.782 : en:Mercy

01:37:45.149 : en:Override Failed

01:39:14.448 : en:Narscissus Escape

01:43:28.243 : en:Survivors

01:46:17.953 : en:"You Are My Lucky Star"

01:53:05.610 : en:End Credits
Чужие / Aliens (1986) BDRip 1080p | Special Edition

x264 [info]: frame I:1351 Avg QP:23.03 size:180754

x264 [info]: frame P:76102 Avg QP:25.73 size: 80227

x264 [info]: frame B:144730 Avg QP:26.02 size: 46924



General

Unique ID : 203443857772050495941488691520260310864 (0x990DDC9CDC03C4F4AAE5A19449D08750)

Complete name : E:Alien.Anthology.1979-1997.x264.BDRip.1080pAliens.1986.x264.BDRip.1080p.mkv

Format : Matroska

Format version : Version 4 / Version 2

File size : 15.0 GiB

Duration : 2h 34mn

Overall bit rate : 13.9 Mbps

Encoded date : UTC 2013-04-05 19:54:05

Writing application : mkvmerge v6.1.0 ('Old Devil') built on Mar 2 2013 14:32:37

Writing library : libebml v1.3.0 + libmatroska v1.4.0


Video

ID : 1

Format : AVC

Format/Info : Advanced Video Codec

Format profile : High@L4.1

Format settings, CABAC : Yes

Format settings, ReFrames : 4 frames

Codec ID : V_MPEG4/ISO/AVC

Duration : 2h 34mn

Bit rate : 11.3 Mbps

Width : 1 920 pixels

Height : 1 040 pixels

Display aspect ratio : 1.85:1

Frame rate mode : Constant

Frame rate : 23.976 fps

Color space : YUV

Chroma subsampling : 4:2:0

Bit depth : 8 bits

Scan type : Progressive

Bits/(Pixel*Frame) : 0.237

Stream size : 11.9 GiB (80%)

Writing library : x264 core 130 r2273 b3065e6

Encoding settings : cabac=1 / ref=4 / deblock=1:0:0 / analyse=0x3:0x133 / me=tesa / subme=11 / psy=1 / psy_rd=1.00:0.10 / mixed_ref=1 / me_range=32 / chroma_me=1 / trellis=2 / 8x8dct=1 / cqm=0 / deadzone=21,11 / fast_pskip=0 / chroma_qp_offset=-3 / threads=12 / lookahead_threads=1 / sliced_threads=0 / nr=0 / decimate=0 / interlaced=0 / bluray_compat=0 / constrained_intra=0 / bframes=3 / b_pyramid=2 / b_adapt=2 / b_bias=0 / direct=3 / weightb=1 / open_gop=0 / weightp=2 / keyint=240 / keyint_min=23 / scenecut=40 / intra_refresh=0 / rc_lookahead=60 / rc=2pass / mbtree=1 / bitrate=11347 / ratetol=1.0 / qcomp=0.60 / qpmin=0 / qpmax=69 / qpstep=4 / cplxblur=20.0 / qblur=0.5 / ip_ratio=1.40 / aq=1:1.00

Language : English

Default : Yes

Forced : No


Audio #1

ID : 2

Format : AC-3

Format/Info : Audio Coding 3

Mode extension : CM (complete main)

Format settings, Endianness : Big

Codec ID : A_AC3

Duration : 2h 34mn

Bit rate mode : Constant

Bit rate : 640 Kbps

Channel(s) : 6 channels

Channel positions : Front: L C R, Side: L R, LFE

Sampling rate : 48.0 KHz

Bit depth : 16 bits

Compression mode : Lossy

Stream size : 707 MiB (5%)

Title : AC3 5.1ch 640 kbps - Дубляж, Blu-ray CEE

Language : Russian

Default : Yes

Forced : No


Audio #2

ID : 3

Format : AC-3

Format/Info : Audio Coding 3

Mode extension : CM (complete main)

Format settings, Endianness : Big

Codec ID : A_AC3

Duration : 2h 34mn

Bit rate mode : Constant

Bit rate : 640 Kbps

Channel(s) : 6 channels

Channel positions : Front: L C R, Side: L R, LFE

Sampling rate : 48.0 KHz

Bit depth : 16 bits

Compression mode : Lossy

Stream size : 707 MiB (5%)

Title : AC3 5.1ch 640 kbps - Двухголосый, LDV

Language : Russian

Default : No

Forced : No


Audio #3

ID : 4

Format : AC-3

Format/Info : Audio Coding 3

Mode extension : CM (complete main)

Format settings, Endianness : Big

Codec ID : A_AC3

Duration : 2h 34mn

Bit rate mode : Constant

Bit rate : 640 Kbps

Channel(s) : 6 channels

Channel positions : Front: L C R, Side: L R, LFE

Sampling rate : 48.0 KHz

Bit depth : 16 bits

Compression mode : Lossy

Stream size : 707 MiB (5%)

Title : AC3 5.1ch 640 kbps - Авторский, А. Гаврилов

Language : Russian

Default : No

Forced : No


Audio #4

ID : 5

Format : AC-3

Format/Info : Audio Coding 3

Mode extension : CM (complete main)

Format settings, Endianness : Big

Codec ID : A_AC3

Duration : 2h 34mn

Bit rate mode : Constant

Bit rate : 640 Kbps

Channel(s) : 6 channels

Channel positions : Front: L C R, Side: L R, LFE

Sampling rate : 48.0 KHz

Bit depth : 16 bits

Compression mode : Lossy

Stream size : 707 MiB (5%)

Title : AC3 5.1ch 640 kbps - Английский

Language : English

Default : No

Forced : No


Text #1

ID : 6

Format : UTF-8

Codec ID : S_TEXT/UTF8

Codec ID/Info : UTF-8 Plain Text

Title : Русские

Language : Russian

Default : No

Forced : No


Text #2

ID : 7

Format : UTF-8

Codec ID : S_TEXT/UTF8

Codec ID/Info : UTF-8 Plain Text

Title : Английские [SDH]

Language : English

Default : No

Forced : No


Menu

00:00:00.000 : en:Main Titles

00:02:06.750 : en:Human Salvage

00:05:15.731 : en:57 Years

00:08:34.346 : en:The Park

00:10:52.108 : en:Inquest

00:15:13.619 : en:Lv-426

00:17:25.001 : en:The Big Score

00:20:54.126 : en:Home Alone

00:25:02.500 : en:Ripley's Decision

00:25:57.471 : en:Sulaco

00:30:03.718 : en:The Android

00:32:53.887 : en:Briefing

00:35:56.862 : en:The Loader

00:38:03.530 : en:Express Elevator to Hell

00:45:40.070 : en:Arrival

00:52:28.518 : en:Memories

00:54:48.076 : en:Lab Specimens

00:56:09.114 : en:Movement

01:00:11.106 : en:Newt

01:04:47.506 : en:Rescue Mission

01:10:10.997 : en:Cocoons

01:12:51.992 : en:The Battle

01:16:22.868 : en:Ripley's Rescue

01:21:22.252 : en:Altercation

01:23:17.198 : en:Stranded

01:26:21.134 : en:Barricade

01:31:22.059 : en:A Mother's Love

01:34:37.421 : en:Speculation

01:37:25.255 : en:The Tunnel

01:38:40.706 : en:Bad News

01:41:23.243 : en:The Corridor

01:45:03.462 : en:Dreamland

01:47:15.552 : en:Not a Dream

01:51:41.402 : en:For a Percentage

01:52:58.604 : en:"Game Time"

02:02:10.363 : en:Little Girl Lost

02:05:54.046 : en:Ripley's Promise

02:07:41.986 : en:Reluctant Soldier

02:13:15.528 : en:The Nest

02:17:29.615 : en:The Final Countdown

02:22:24.700 : en:It's Over

02:23:16.710 : en:Final Confrontation

02:30:16.004 : en:Dreams

02:31:36.460 : en:End Titles
Чужой 3 / Alien 3 (1992) BDRip 1080p | Special 'Assembly Cut' Edition

x264 [info]: frame I:1646 Avg QP:17.37 size:123833

x264 [info]: frame P:64901 Avg QP:19.76 size: 61306

x264 [info]: frame B:141867 Avg QP:20.28 size: 30385



General

Unique ID : 191612632986831638026722945604902896055 (0x90274031C1A1DF05B127D9AB8612C1B7)

Complete name : E:Alien.Anthology.1979-1997.x264.BDRip.1080pAlien.3.1992.x264.BDRip.1080p.mkv

Format : Matroska

Format version : Version 4 / Version 2

File size : 10.5 GiB

Duration : 2h 24mn

Overall bit rate : 10.4 Mbps

Encoded date : UTC 2013-04-05 20:59:07

Writing application : mkvmerge v6.1.0 ('Old Devil') built on Mar 2 2013 14:32:37

Writing library : libebml v1.3.0 + libmatroska v1.4.0


Video

ID : 1

Format : AVC

Format/Info : Advanced Video Codec

Format profile : High@L4.1

Format settings, CABAC : Yes

Format settings, ReFrames : 5 frames

Codec ID : V_MPEG4/ISO/AVC

Duration : 2h 24mn

Bit rate : 7 818 Kbps

Width : 1 920 pixels

Height : 812 pixels

Display aspect ratio : 2.35:1

Frame rate mode : Constant

Frame rate : 23.976 fps

Color space : YUV

Chroma subsampling : 4:2:0

Bit depth : 8 bits

Scan type : Progressive

Bits/(Pixel*Frame) : 0.209

Stream size : 7.70 GiB (73%)

Writing library : x264 core 130 r2273 b3065e6

Encoding settings : cabac=1 / ref=5 / deblock=1:-3:-3 / analyse=0x3:0x133 / me=tesa / subme=11 / psy=1 / psy_rd=1.00:0.10 / mixed_ref=1 / me_range=32 / chroma_me=1 / trellis=2 / 8x8dct=1 / cqm=0 / deadzone=21,11 / fast_pskip=0 / chroma_qp_offset=-3 / threads=12 / lookahead_threads=1 / sliced_threads=0 / nr=0 / decimate=0 / interlaced=0 / bluray_compat=0 / constrained_intra=0 / bframes=3 / b_pyramid=2 / b_adapt=2 / b_bias=0 / direct=3 / weightb=1 / open_gop=0 / weightp=2 / keyint=240 / keyint_min=23 / scenecut=40 / intra_refresh=0 / rc_lookahead=60 / rc=2pass / mbtree=1 / bitrate=7818 / ratetol=1.0 / qcomp=0.60 / qpmin=0 / qpmax=69 / qpstep=4 / cplxblur=20.0 / qblur=0.5 / ip_ratio=1.40 / aq=1:1.00

Language : English

Default : Yes

Forced : No


Audio #1

ID : 2

Format : AC-3

Format/Info : Audio Coding 3

Mode extension : CM (complete main)

Format settings, Endianness : Big

Codec ID : A_AC3

Duration : 2h 24mn

Bit rate mode : Constant

Bit rate : 640 Kbps

Channel(s) : 6 channels

Channel positions : Front: L C R, Side: L R, LFE

Sampling rate : 48.0 KHz

Bit depth : 16 bits

Compression mode : Lossy

Stream size : 663 MiB (6%)

Title : AC3 5.1ch 640 kbps - Дубляж, Blu-ray CEE

Language : Russian

Default : Yes

Forced : No


Audio #2

ID : 3

Format : AC-3

Format/Info : Audio Coding 3

Mode extension : CM (complete main)

Format settings, Endianness : Big

Codec ID : A_AC3

Duration : 2h 24mn

Bit rate mode : Constant

Bit rate : 640 Kbps

Channel(s) : 6 channels

Channel positions : Front: L C R, Side: L R, LFE

Sampling rate : 48.0 KHz

Bit depth : 16 bits

Compression mode : Lossy

Stream size : 663 MiB (6%)

Title : AC3 5.1ch 640 kbps - Многоголосый, LDV

Language : Russian

Default : No

Forced : No


Audio #3

ID : 4

Format : AC-3

Format/Info : Audio Coding 3

Mode extension : CM (complete main)

Format settings, Endianness : Big

Codec ID : A_AC3

Duration : 2h 24mn

Bit rate mode : Constant

Bit rate : 640 Kbps

Channel(s) : 6 channels

Channel positions : Front: L C R, Side: L R, LFE

Sampling rate : 48.0 KHz

Bit depth : 16 bits

Compression mode : Lossy

Stream size : 663 MiB (6%)

Title : AC3 5.1ch 640 kbps - Авторский, А. Гаврилов

Language : Russian

Default : No

Forced : No


Audio #4

ID : 5

Format : AC-3

Format/Info : Audio Coding 3

Mode extension : CM (complete main)

Format settings, Endianness : Big

Codec ID : A_AC3

Duration : 2h 24mn

Bit rate mode : Constant

Bit rate : 640 Kbps

Channel(s) : 6 channels

Channel positions : Front: L C R, Side: L R, LFE

Sampling rate : 48.0 KHz

Bit depth : 16 bits

Compression mode : Lossy

Stream size : 663 MiB (6%)

Title : AC3 5.1ch 640 kbps - Английский

Language : English

Default : No

Forced : No


Text #1

ID : 6

Format : UTF-8

Codec ID : S_TEXT/UTF8

Codec ID/Info : UTF-8 Plain Text

Title : Русские

Language : Russian

Default : No

Forced : No


Text #2

ID : 7

Format : UTF-8

Codec ID : S_TEXT/UTF8

Codec ID/Info : UTF-8 Plain Text

Title : Английские [SDH]

Language : English

Default : No

Forced : No


Menu

00:00:00.000 : en:Main Titles

00:03:42.972 : en:Crash Landing

00:04:31.477 : en:One Survivor?

00:09:29.693 : en:The Facts

00:12:13.398 : en:The Sleeper Awakens

00:15:01.442 : en:Inspecting the Ship

00:16:33.701 : en:A Possible Contagion

00:24:27.922 : en:What Killed Babe?

00:26:31.755 : en:A New Beginning

00:31:07.739 : en:Disharmony

00:33:12.824 : en:New Temptation

00:35:53.150 : en:Attracted in That Way

00:37:43.260 : en:Diced

00:43:32.735 : en:The Flight Recorder

00:46:11.268 : en:High Priority

00:49:15.284 : en:A Re-Education

00:51:46.811 : en:Candlelight Dinner

00:55:52.056 : en:Bishop Speaks

00:59:33.318 : en:Discussing the Dragon

01:02:51.434 : en:A Long, Sad Story

01:07:33.256 : en:"It's Here!"

01:11:03.634 : en:Who's In Charge

01:14:12.823 : en:The Plan

01:17:08.872 : en:Preparations

01:19:05.698 : en:Wait for the Signal

01:24:41.033 : en:They Don't Want to Kill It

01:26:19.506 : en:Cut Loose

01:28:02.859 : en:Permission Denied

01:29:09.926 : en:Alien Unbound

01:34:12.770 : en:Under the Scanner

01:37:18.707 : en:Better Get Prepared

01:39:29.253 : en:A Classified Code

01:42:47.452 : en:In the Basement

01:46:07.444 : en:It Has to Die

01:49:57.715 : en:Plan B

01:54:04.796 : en:One Chance

01:56:30.024 : en:It Started

01:58:32.896 : en:Improvising

02:05:23.806 : en:Ripley the Beast

02:08:09.180 : en:In the Mold

02:10:50.175 : en:Time for a Cold Shower

02:12:42.912 : en:Never Trust a Bishop

02:16:18.461 : en:Ripley's Choice

02:19:09.966 : en:End Titles
Чужой 4: Воскрешение / Alien: Resurrection (1997) BDRip 1080p | Special Edition

x264 [info]: frame I:1417 Avg QP:16.79 size:133667

x264 [info]: frame P:54949 Avg QP:19.78 size: 74317

x264 [info]: frame B:110713 Avg QP:20.79 size: 47892



General

Unique ID : 204345041028530061593795521589560564637 (0x99BB6C60B0E91197B422B75779AD5B9D)

Complete name : E:Alien.Anthology.1979-1997.x264.BDRip.1080pAlien.Resurrection.1997.x264.BDRip.1080p.mkv

Format : Matroska

Format version : Version 4 / Version 2

File size : 11.0 GiB

Duration : 1h 56mn

Overall bit rate : 13.6 Mbps

Encoded date : UTC 2013-04-06 14:40:50

Writing application : mkvmerge v6.1.0 ('Old Devil') built on Mar 2 2013 14:32:37

Writing library : libebml v1.3.0 + libmatroska v1.4.0


Video

ID : 1

Format : AVC

Format/Info : Advanced Video Codec

Format profile : High@L4.1

Format settings, CABAC : Yes

Format settings, ReFrames : 5 frames

Codec ID : V_MPEG4/ISO/AVC

Duration : 1h 56mn

Bit rate : 11.0 Mbps

Width : 1 920 pixels

Height : 820 pixels

Display aspect ratio : 2.35:1

Frame rate mode : Constant

Frame rate : 23.976 fps

Color space : YUV

Chroma subsampling : 4:2:0

Bit depth : 8 bits

Scan type : Progressive

Bits/(Pixel*Frame) : 0.291

Stream size : 8.70 GiB (79%)

Writing library : x264 core 130 r2273 b3065e6

Encoding settings : cabac=1 / ref=5 / deblock=1:-3:-3 / analyse=0x3:0x133 / me=tesa / subme=11 / psy=1 / psy_rd=1.00:0.08 / mixed_ref=1 / me_range=32 / chroma_me=1 / trellis=2 / 8x8dct=1 / cqm=0 / deadzone=21,11 / fast_pskip=0 / chroma_qp_offset=-3 / threads=12 / lookahead_threads=1 / sliced_threads=0 / nr=0 / decimate=0 / interlaced=0 / bluray_compat=0 / constrained_intra=0 / bframes=3 / b_pyramid=2 / b_adapt=2 / b_bias=0 / direct=3 / weightb=1 / open_gop=0 / weightp=2 / keyint=240 / keyint_min=23 / scenecut=40 / intra_refresh=0 / rc_lookahead=60 / rc=2pass / mbtree=1 / bitrate=10998 / ratetol=1.0 / qcomp=0.60 / qpmin=0 / qpmax=69 / qpstep=4 / cplxblur=20.0 / qblur=0.5 / ip_ratio=1.40 / aq=1:1.00

Language : English

Default : Yes

Forced : No


Audio #1

ID : 2

Format : AC-3

Format/Info : Audio Coding 3

Mode extension : CM (complete main)

Format settings, Endianness : Big

Codec ID : A_AC3

Duration : 1h 56mn

Bit rate mode : Constant

Bit rate : 640 Kbps

Channel(s) : 6 channels

Channel positions : Front: L C R, Side: L R, LFE

Sampling rate : 48.0 KHz

Bit depth : 16 bits

Compression mode : Lossy

Stream size : 532 MiB (5%)

Title : AC3 5.1ch 640 kbps - Дубляж, Blu-ray CEE

Language : Russian

Default : Yes

Forced : No


Audio #2

ID : 3

Format : AC-3

Format/Info : Audio Coding 3

Mode extension : CM (complete main)

Format settings, Endianness : Big

Codec ID : A_AC3

Duration : 1h 56mn

Bit rate mode : Constant

Bit rate : 640 Kbps

Channel(s) : 6 channels

Channel positions : Front: L C R, Side: L R, LFE

Sampling rate : 48.0 KHz

Bit depth : 16 bits

Compression mode : Lossy

Stream size : 532 MiB (5%)

Title : AC3 5.1ch 640 kbps - Многоголосый, LDV

Language : Russian

Default : No

Forced : No


Audio #3

ID : 4

Format : AC-3

Format/Info : Audio Coding 3

Mode extension : CM (complete main)

Format settings, Endianness : Big

Codec ID : A_AC3

Duration : 1h 56mn

Bit rate mode : Constant

Bit rate : 640 Kbps

Channel(s) : 6 channels

Channel positions : Front: L C R, Side: L R, LFE

Sampling rate : 48.0 KHz

Bit depth : 16 bits

Compression mode : Lossy

Stream size : 532 MiB (5%)

Title : AC3 5.1ch 640 kbps - Авторский, А. Гаврилов

Language : Russian

Default : No

Forced : No


Audio #4

ID : 5

Format : AC-3

Format/Info : Audio Coding 3

Mode extension : CM (complete main)

Format settings, Endianness : Big

Codec ID : A_AC3

Duration : 1h 56mn

Bit rate mode : Constant

Bit rate : 640 Kbps

Channel(s) : 6 channels

Channel positions : Front: L C R, Side: L R, LFE

Sampling rate : 48.0 KHz

Bit depth : 16 bits

Compression mode : Lossy

Stream size : 532 MiB (5%)

Title : AC3 5.1ch 640 kbps - Английский

Language : English

Default : No

Forced : No


Text #1

ID : 6

Format : UTF-8

Codec ID : S_TEXT/UTF8

Codec ID/Info : UTF-8 Plain Text

Title : Русские

Language : Russian

Default : No

Forced : No


Text #2

ID : 7

Format : UTF-8

Codec ID : S_TEXT/UTF8

Codec ID/Info : UTF-8 Plain Text

Title : Английские

Language : English

Default : No

Forced : No


Menu

00:00:00.000 : en:Main Titles

00:03:27.330 : en:Usm Auriga

00:04:26.307 : en:Born Again

00:06:30.139 : en:Number 8

00:08:49.278 : en:An Unexpected Benefit

00:12:06.224 : en:Memories

00:15:03.527 : en:The Betty

00:19:25.538 : en:The Cargo Arrives

00:21:37.836 : en:The Deal

00:24:12.866 : en:Hosts

00:26:19.993 : en:A Little One-on-One

00:30:08.765 : en:Today's Lesson

00:32:19.560 : en:Snooping Around

00:37:16.692 : en:Caught

00:39:26.739 : en:The Escape

00:42:36.679 : en:"Evacuation."

00:46:30.661 : en:"Evacuation incomplete."

00:49:20.791 : en:Ripley Comes Through

00:53:35.378 : en:Finding a Way Out

00:57:04.963 : en:A Waste of Ammo

01:03:01.652 : en:"He's got one inside of him."

01:07:40.430 : en:A Trap

01:19:37.145 : en:Call's Secret

01:22:07.296 : en:Connecting at the Chapel

01:28:21.421 : en:Into the Nest

01:31:45.916 : en:Sharing the Monster

01:34:15.524 : en:A New Baby

01:38:58.390 : en:Racing to the Betty

01:40:45.537 : en:Closing the Hatch

01:43:49.845 : en:Under Pressure

01:47:52.296 : en:"I'm a stranger here myself."

01:49:51.417 : en:End Titles
Оповестить о раздаче Включить оповещение на почту ( о новом торрент-файле ), когда появится раздача с похожим названием: Чужой: Антология, Alien: Anthology

E-Mail адрес:
Внимание: Если вы не авторизованы, то для вас будет создана временная учетная запись (доступ к аккаунту будет прикреплен в письме).
Похожие файлы
Загрузка / Обновление
Категория Фильмы / HDTV / HD / Blu-Ray RSS лента
Добавлен (3 года, 6 месяцев назад)
Просмотров 75 раз (a)
Взят 2 раз (a)
Файлы 4, 46.01 GB (49 398 241 240 байт)
Оценка
IMDB: 8.5, 468,746 голоса (ов), Кинопоиск: 8.001, 79046 голоса (ов)
Раздал ViKa  (Искать торренты)
Участники
Раздают (отдают): 0 (9), Скачивают (качают): 0 (5), Завершено: 0 (7)
Просматривают

« Tonight Alive - Discography / Rock -†- ¿? -†- Чужой: Антология / Alien: Antology (1979-1997) BDRip 1080p | Director`s cut, Special Edition »

:: Список Комментариев
Нет комментариев.

 Нет комментариев

Поблагодарите нас, взамен, мы будем заливать еще больше раздач!


Счетчики
Рейтинг@Mail.ru Яндекс.Метрика


Поделитесь в социальных сетях


Быстрый Поиск





Спасибо Вам
Мы благодарны этим людям в поддержке сайта:
ilmarr
Попади и ты в этот блок, поставь оценку 5 и получи 300 MB к отдаче:
Войти на сайт сейчас.

Правобладателям
По всем вопросам сотрудничества, удаления авторских файлов "пачкой", просьба отписаться по адреcу:
abuse@muz-tracker.net

Наша группа в VK