Самые активные релизы за неделю
Музыка / Мультимедиа Мультфильмы
VA - Sexy Chill-Out Occasion Vol. 2
  • VA   -   Sexy Chill-Out Occasion   Vol. 2
  • VA - All I Want For Christmas Is Bass 2016 - 2017 [2016 / MP3 / 320] [House]
  • VA - Promo DJ TOP 100 Remixes Spring 2016
  • VA - Top 100 Best Trap
  • Андрей Саватеев - Карман удачи
  • VA - LUXEmusic - Dance Super Chart Vol.66
  • VA - TOP 100 Club Tracks (April)
  • VA   -   NOW That's What I Call Music!  Vol.58
  • VA   -   Sexy Chill-Out Occasion    Vol. 3
  • VA   -   Ultimate... Guitar Legends
  • VA - Казанова Records - Collection CD
  • VA - XXXL Clubничка №300

:: Детали раздачи
Раздача является мультитрекерной — учтите, количество раздающих не будет совпадать с количеством участников на сайте (скачивание на клиентской стороне зависит от настроек µTorrent клиент программы, настройки -> Включить DHT, Обмен пирами и Поиск лок-х пиров).
Если висит надпись, пиры по нулям - не бойтесь, возможность скачать повторно раздачу - есть. Попробуйте, в случае отказа - прокоментируйте или нажмите на "Позвать скачавших".
Данная раздача является свободной — учитывается только количество отданного, количество скачанного не фиксируется.

Матрица: Трилогия / The Matrix: Trilogy (1999-2003) BDRemux 1080p Золотой торрент

Скачать Скачать .torrent файл
Смотреть / Слушать онлайн просмотр
Magnet-ссылка
Теги / Метки фантастика, боевик, приключения, 1999
Описание

Название: Матрица: Трилогия

Оригинальное название: The Matrix: Trilogy

Год выхода: 1999-2003

Жанр: фантастика, боевик, приключения
Режиссер: Энди Вачовски, Лэрри Вачовски




Мир Матрицы — это иллюзия, существующая только в бесконечном сне обреченного человечества. Холодный мир будущего, в котором люди — всего лишь батарейки в компьютерных системах.

Матрица / The Matrix (1999) BDRemux 1080p

Общее

Уникальный идентификатор : 199285998815637148595010965164847150872 (0x95ED1656C6F8AF2E8F46BAACDA8A3718)

Полное имя : D:Videomatrix.trilogyThe.Matrix.1999.BDRemux.1080p.mkv

Формат : Matroska

Версия формата : Version 4 / Version 2

Размер файла : 17,9 Гбайт

Продолжительность : 2 ч. 16 м.

Режим общего битрейта : Переменный

Общий поток : 18,8 Мбит/сек

Название фильма : The Matrix 1999 от TorrentIRK

Дата кодирования : UTC 2013-04-23 06:44:16

Программа кодирования : mkvmerge v6.1.0 ('Old Devil') built on Mar 2 2013 14:32:37

Библиотека кодирования : libebml v1.3.0 + libmatroska v1.4.0


Видео

Идентификатор : 1

Формат : VC-1

Профиль формата : Advanced@L3

Идентификатор кодека : V_MS/VFW/FOURCC / WVC1

Идентификатор кодека/Подсказка : Microsoft

Продолжительность : 2 ч. 16 м.

Ширина : 1920 пикселей

Высота : 1080 пикселей

Соотношение сторон : 16:9

Режим частоты кадров : Постоянный

Частота кадров : 23,962 кадра/сек

Частота кадров в оригинале : 23,976 кадра/сек

Субдискретизация насыщенности : 4:2:0

Битовая глубина : 8 бит

Тип развёртки : Прогрессивная

Метод сжатия : С потерями

Заголовок : The Matrix 1999

Default : Да

Forced : Нет


Аудио #1

Идентификатор : 2

Формат : AC-3

Формат/Информация : Audio Coding 3

Расширение режима : CM (complete main)

Параметр Endianness формата : Big

Идентификатор кодека : A_AC3

Продолжительность : 2 ч. 16 м.

Вид битрейта : Постоянный

Битрейт : 640 Кбит/сек

Каналы : 6 каналов

Расположение каналов : Front: L C R, Side: L R, LFE

Частота : 48,0 КГц

Битовая глубина : 16 бит

Метод сжатия : С потерями

Задержка видео : -194 мс.

Размер потока : 624 Мбайт (3%)

Заголовок : Russian 48 kHz / 640 kbps / 6 channels (Blu-ray CEE)

Язык : Russian

Default : Да

Forced : Нет


Аудио #2

Идентификатор : 3

Формат : TrueHD

Идентификатор кодека : A_TRUEHD

Продолжительность : 2 ч. 16 м.

Вид битрейта : Переменный

Максимальный битрейт : 3345 Кбит/сек

Каналы : 6 каналов

Расположение каналов : Front: L C R, Side: L R, LFE

Частота : 48,0 КГц

Метод сжатия : Без потерь

Задержка видео : -194 мс.

Заголовок : English 5.1 / 48 kHz / 1646 kbps / 16-bit

Язык : English

Default : Нет

Forced : Нет


Текст #1

Идентификатор : 4

Формат : PGS

Режим смешивания : zlib

Идентификатор кодека : S_HDMV/PGS

Идентификатор кодека/Информация : The same subtitle format used on BDs/HD-DVDs

Заголовок : Английские субтитры

Язык : English

Default : Нет

Forced : Нет


Текст #2

Идентификатор : 5

Формат : PGS

Режим смешивания : zlib

Идентификатор кодека : S_HDMV/PGS

Идентификатор кодека/Информация : The same subtitle format used on BDs/HD-DVDs

Заголовок : Русские субтитры

Язык : Russian

Default : Нет

Forced : Нет
Матрица: Перезагрузка / The Matrix Reloaded (2003) BDRemux 1080p

Общее

Уникальный идентификатор : 215349200534699592642505987276398579281 (0xA202BF545BD99A9B80FC46D26462CE51)

Полное имя : D:Videomatrix.trilogyThe.Matrix.Reloaded.2003.BDRemux.1080p.mkv

Формат : Matroska

Версия формата : Version 4 / Version 2

Размер файла : 15,8 Гбайт

Продолжительность : 2 ч. 18 м.

Режим общего битрейта : Переменный

Общий поток : 16,4 Мбит/сек

Название фильма : The Matrix Reloaded 2003 от TorrentIRK

Дата кодирования : UTC 2013-04-23 07:41:39

Программа кодирования : mkvmerge v6.1.0 ('Old Devil') built on Mar 2 2013 14:32:37

Библиотека кодирования : libebml v1.3.0 + libmatroska v1.4.0


Видео

Идентификатор : 1

Формат : VC-1

Профиль формата : Advanced@L3

Идентификатор кодека : V_MS/VFW/FOURCC / WVC1

Идентификатор кодека/Подсказка : Microsoft

Продолжительность : 2 ч. 18 м.

Ширина : 1920 пикселей

Высота : 1080 пикселей

Соотношение сторон : 16:9

Режим частоты кадров : Постоянный

Частота кадров : 23,962 кадра/сек

Частота кадров в оригинале : 23,976 кадра/сек

Субдискретизация насыщенности : 4:2:0

Битовая глубина : 8 бит

Тип развёртки : Прогрессивная

Метод сжатия : С потерями

Заголовок : The Matrix Reloaded

Default : Да

Forced : Нет


Аудио #1

Идентификатор : 2

Формат : TrueHD

Идентификатор кодека : A_TRUEHD

Продолжительность : 2 ч. 18 м.

Вид битрейта : Переменный

Максимальный битрейт : 3366 Кбит/сек

Каналы : 6 каналов

Расположение каналов : Front: L C R, Side: L R, LFE

Частота : 48,0 КГц

Метод сжатия : Без потерь

Задержка видео : -194 мс.

Заголовок : English 5.1 / 48 kHz / 1781 kbps / 16-bit

Язык : English

Default : Нет

Forced : Нет


Аудио #2

Идентификатор : 5

Формат : AC-3

Формат/Информация : Audio Coding 3

Расширение режима : CM (complete main)

Параметр Endianness формата : Big

Идентификатор кодека : A_AC3

Продолжительность : 2 ч. 18 м.

Вид битрейта : Постоянный

Битрейт : 640 Кбит/сек

Каналы : 6 каналов

Расположение каналов : Front: L C R, Side: L R, LFE

Частота : 48,0 КГц

Битовая глубина : 16 бит

Метод сжатия : С потерями

Задержка видео : -194 мс.

Размер потока : 633 Мбайт (4%)

Заголовок : Audio Russian 5.1 / 48 kHz / 640 kbps

Язык : Russian

Default : Да

Forced : Нет


Текст #1

Идентификатор : 3

Формат : PGS

Режим смешивания : zlib

Идентификатор кодека : S_HDMV/PGS

Идентификатор кодека/Информация : The same subtitle format used on BDs/HD-DVDs

Заголовок : Субтитры английские

Язык : English

Default : Нет

Forced : Нет


Текст #2

Идентификатор : 4

Формат : PGS

Режим смешивания : zlib

Идентификатор кодека : S_HDMV/PGS

Идентификатор кодека/Информация : The same subtitle format used on BDs/HD-DVDs

Заголовок : Субтитры русские

Язык : Russian

Default : Нет

Forced : Нет

Матрица: Революция / The Matrix Revolutions (2003) BDRemux 1080p

Общее

Уникальный идентификатор : 220107904589468541625742031186912142545 (0xA5973D8DC59FF5AFBA9A11DE1B6CE4D1)

Полное имя : D:Videomatrix.trilogyThe.Matrix.Revolutions.2003.BDRemux.1080p.mkv

Формат : Matroska

Версия формата : Version 4 / Version 2

Размер файла : 14,8 Гбайт

Продолжительность : 2 ч. 9 м.

Режим общего битрейта : Переменный

Общий поток : 16,4 Мбит/сек

Название фильма : The Matrix Revolutions 2003 от TorrentIRK

Дата кодирования : UTC 2013-04-23 08:24:53

Программа кодирования : mkvmerge v6.1.0 ('Old Devil') built on Mar 2 2013 14:32:37

Библиотека кодирования : libebml v1.3.0 + libmatroska v1.4.0


Видео

Идентификатор : 1

Формат : VC-1

Профиль формата : Advanced@L3

Идентификатор кодека : V_MS/VFW/FOURCC / WVC1

Идентификатор кодека/Подсказка : Microsoft

Продолжительность : 2 ч. 9 м.

Ширина : 1920 пикселей

Высота : 1080 пикселей

Соотношение сторон : 16:9

Режим частоты кадров : Постоянный

Частота кадров : 23,962 кадра/сек

Частота кадров в оригинале : 23,976 кадра/сек

Субдискретизация насыщенности : 4:2:0

Битовая глубина : 8 бит

Тип развёртки : Прогрессивная

Метод сжатия : С потерями

Заголовок : The Matrix Revolutions 2003

Default : Да

Forced : Нет


Аудио #1

Идентификатор : 2

Формат : TrueHD

Идентификатор кодека : A_TRUEHD

Продолжительность : 2 ч. 9 м.

Вид битрейта : Переменный

Максимальный битрейт : 3267 Кбит/сек

Каналы : 6 каналов

Расположение каналов : Front: L C R, Side: L R, LFE

Частота : 48,0 КГц

Метод сжатия : Без потерь

Задержка видео : -194 мс.

Заголовок : English 5.1 / 48 kHz / 1801 kbps / 16-bit

Default : Нет

Forced : Нет


Аудио #2

Идентификатор : 5

Формат : AC-3

Формат/Информация : Audio Coding 3

Расширение режима : CM (complete main)

Параметр Endianness формата : Big

Идентификатор кодека : A_AC3

Продолжительность : 2 ч. 9 м.

Вид битрейта : Постоянный

Битрейт : 640 Кбит/сек

Каналы : 6 каналов

Расположение каналов : Front: L C R, Side: L R, LFE

Частота : 48,0 КГц

Битовая глубина : 16 бит

Метод сжатия : С потерями

Задержка видео : -194 мс.

Размер потока : 592 Мбайт (4%)

Заголовок : Russian 5.1 / 48 kHz / 640 kbps

Язык : Russian

Default : Да

Forced : Нет


Текст #1

Идентификатор : 3

Формат : PGS

Режим смешивания : zlib

Идентификатор кодека : S_HDMV/PGS

Идентификатор кодека/Информация : The same subtitle format used on BDs/HD-DVDs

Заголовок : Английские субтитры

Язык : English

Default : Нет

Forced : Нет


Текст #2

Идентификатор : 4

Формат : PGS

Режим смешивания : zlib

Идентификатор кодека : S_HDMV/PGS

Идентификатор кодека/Информация : The same subtitle format used on BDs/HD-DVDs

Заголовок : Русские субтитры

Язык : Russian

Default : Нет

Forced : Нет
Оповестить о раздаче Включить оповещение на почту ( о новом торрент-файле ), когда появится раздача с похожим названием: Матрица: Трилогия, The Matrix: Trilogy

E-Mail адрес:
Внимание: Если вы не авторизованы, то для вас будет создана временная учетная запись (доступ к аккаунту будет прикреплен в письме).
Похожие файлы
Загрузка / Обновление
Категория Фильмы / HDTV / HD / Blu-Ray RSS лента
Добавлен (3 года, 6 месяцев назад)
Просмотров 124 раз (a)
Взят 1 раз (a)
Файлы 3, 48.57 GB (52 146 933 684 байт)
Оценка
IMDB: 8.7, 1,001,412 голоса (ов), Кинопоиск: 8.512, 232022 голоса (ов)
Раздал ViKa  (Искать торренты)
Участники
Раздают (отдают): 0 (13), Скачивают (качают): 0 (3), Завершено: 0 (190)
Просматривают

« OST - Ангел-хранитель / Schutzengel [Original Soundtrack] [Martin Todsharow] (2012) MP3 -†- ¿? -†- Паспорт (1990) BDRip-AVC »

:: Список Комментариев
Нет комментариев.

 Нет комментариев

Поблагодарите нас, взамен, мы будем заливать еще больше раздач!

Загрузка...

Счетчики
Рейтинг@Mail.ru Яндекс.Метрика


Поделитесь в социальных сетях


Быстрый Поиск





Спасибо Вам
Мы благодарны этим людям в поддержке сайта:
valmit2011, VADUHA1973
Попади и ты в этот блок, поставь оценку 5 и получи 300 MB к отдаче:
Войти на сайт сейчас.

Правобладателям
По всем вопросам сотрудничества, удаления авторских файлов "пачкой", просьба отписаться по адреcу:
abuse@muz-tracker.net

Наша группа в VK