Самые активные релизы за неделю
Музыка / Мультимедиа Сериалы Фильмы / AVI Фильмы / HDTV / HD / Blu-Ray
Michael Jackson - King of Pop [2CD Deluxe UK Edition] (2015) MP3
  • Michael Jackson - King of Pop [2CD Deluxe UK Edition] (2015) MP3
  • Bebe Rexha - All Your Fault: Pt. 1 ( Pop / 2017 )
  • VA - I Love Music! - Hard Rock Edition Vol.31 [2017 / MP3 / 320] [Hard Rock]
  • VA - Kiss FM UA - TOP 40 PARADE - 05 February  [2017 / MP3 / 320] [Club]
  • Evanescence - Lost Whispers [2016 / MP3 / 320] [Alternative]
  • VA - Trance In Motion Volume 209 (Mixed by Emil Sorous) [2017 / MP3 / 320] [Trance]
  • VA - Cold Emotions Melancholic Piano Melodies Collection (2014) MP3
  • VA - Полный отрыв. Зимние хиты (2016) MP3
  • VA - Kiss FM Fresh Top 40 - 4 Februarie 2017 [2017 / MP3 / 320] [Dance]
  • VA - Retro Party. Favorite Hits 80-90's [2017 / MP3 / 320] [Disco]
  • Сборник - Зимняя 100-ка хитовая (2014) MP3
  • VA - Top 100 Beatport Downloads January [2017 / MP3 / 320] [House]

:: Детали раздачи
Раздача является мультитрекерной — учтите, количество раздающих не будет совпадать с количеством участников на сайте (скачивание на клиентской стороне зависит от настроек µTorrent клиент программы, настройки -> Включить DHT, Обмен пирами и Поиск лок-х пиров).
Если висит надпись, пиры по нулям - не бойтесь, возможность скачать повторно раздачу - есть. Попробуйте, в случае отказа - прокоментируйте или нажмите на "Позвать скачавших".
Данная раздача является свободной — учитывается только количество отданного, количество скачанного не фиксируется.

Ultra Music Festival 2013. Miami, USA (2013) WEB-DLRip Золотой торрент

Скачать Скачать .torrent файл
Смотреть / Слушать онлайн просмотр
Magnet-ссылка
Теги / Метки electronic dance music, 2013
Описание
Оригинальное название: Ultra Music Festival 2013 (Miami, USA)

Год выпуска: 2013

Жанр: Electronic dance music

Описание фильма:

Запись самого масштабного и грандиозного фестиваля электронной музыки, проходящего в Майами (Второй по величине в Северной Америке).


Список участников (трансляций)

15.03.2013]

Afrojack

Nicky Romero


16.03.2013



17.03.2013



22.03.2013



23.03.2013



24.03.2013




[spoiler=Отчёт MediaInfo]

Общее

Полное имя : E:UMF MIAMI 2013Weekend 1 (day 1)Afrojack.MP4

Формат : MPEG-4

Профиль формата : Base Media / Version 2

Идентификатор кодека : mp42

Размер файла : 1,28 Гбайт

Продолжительность : 1 ч. 0 м.

Режим общего битрейта : Переменный

Общий поток : 3009 Кбит/сек

Дата кодирования : UTC 2013-03-27 05:09:55

Дата пометки : UTC 2013-03-27 05:09:55

gsst : 0

gstd : 3643025

gssd : BB22DFB0BHH1364646637980110

gshh : r8---sn-gvnuxaxjvh-bvwl.c.youtube.com


Видео

Идентификатор : 1

Формат : AVC

Формат/Информация : Advanced Video Codec

Профиль формата : High@L3.1

Параметр CABAC формата : Да

Параметр ReFrames формата : 1 кадр

Идентификатор кодека : avc1

Идентификатор кодека/Информация : Advanced Video Coding

Продолжительность : 1 ч. 0 м.

Битрейт : 2815 Кбит/сек

Максимальный битрейт : 8362 Кбит/сек

Ширина : 1280 пикселей

Высота : 720 пикселей

Соотношение сторон : 16:9

Режим частоты кадров : Постоянный

Частота кадров : 29,970 кадров/сек

Цветовое пространство : YUV

Субдискретизация насыщенности : 4:2:0

Битовая глубина : 8 бит

Тип развёртки : Прогрессивная

Бит/(Пиксели*Кадры) : 0.102

Размер потока : 1,19 Гбайт (94%)

Дата пометки : UTC 2013-03-27 05:15:46


Аудио

Идентификатор : 2

Формат : AAC

Формат/Информация : Advanced Audio Codec

Профиль формата : LC

Идентификатор кодека : 40

Продолжительность : 1 ч. 0 м.

Вид битрейта : Переменный

Битрейт : 192 Кбит/сек

Максимальный битрейт : 201 Кбит/сек

Каналы : 2 канала

Расположение каналов : Front: L R

Частота : 44,1 КГц

Метод сжатия : С потерями

Размер потока : 83,4 Мбайт (6%)

Заголовок : IsoMedia File Produced by Google, 5-11-2011

Дата кодирования : UTC 2013-03-27 05:13:41

Дата пометки : UTC 2013-03-27 05:15:46


Общее

Полное имя : E:UMF MIAMI 2013Weekend 1 (day 1)Nicky Romero (Full HD).MP4

Формат : MPEG-4

Профиль формата : Base Media / Version 2

Идентификатор кодека : mp42

Размер файла : 2,27 Гбайт

Продолжительность : 52 м.

Режим общего битрейта : Переменный

Общий поток : 6194 Кбит/сек

Дата кодирования : UTC 2013-03-18 03:35:47

Дата пометки : UTC 2013-03-18 03:35:47

gsst : 0

gstd : 3155056

gssd : BB22DF9C9HH1363979364625714

gshh : r6---sn-gvnuxaxjvh-bvwe.c.youtube.com


Видео

Идентификатор : 1

Формат : AVC

Формат/Информация : Advanced Video Codec

Профиль формата : High@L4.0

Параметр CABAC формата : Да

Параметр ReFrames формата : 1 кадр

Идентификатор кодека : avc1

Идентификатор кодека/Информация : Advanced Video Coding

Продолжительность : 52 м.

Битрейт : 5999 Кбит/сек

Максимальный битрейт : 15,4 Мбит/сек

Ширина : 1920 пикселей

Высота : 1080 пикселей

Соотношение сторон : 16:9

Режим частоты кадров : Постоянный

Частота кадров : 29,970 кадров/сек

Цветовое пространство : YUV

Субдискретизация насыщенности : 4:2:0

Битовая глубина : 8 бит

Тип развёртки : Прогрессивная

Бит/(Пиксели*Кадры) : 0.097

Размер потока : 2,20 Гбайт (97%)

Дата пометки : UTC 2013-03-18 03:47:05


Аудио

Идентификатор : 2

Формат : AAC

Формат/Информация : Advanced Audio Codec

Профиль формата : LC

Идентификатор кодека : 40

Продолжительность : 52 м.

Вид битрейта : Переменный

Битрейт : 192 Кбит/сек

Максимальный битрейт : 203 Кбит/сек

Каналы : 2 канала

Расположение каналов : Front: L R

Частота : 44,1 КГц

Метод сжатия : С потерями

Размер потока : 72,2 Мбайт (3%)

Заголовок : IsoMedia File Produced by Google, 5-11-2011

Дата кодирования : UTC 2013-03-18 03:43:52

Дата пометки : UTC 2013-03-18 03:47:05


Общее

Уникальный идентификатор : 93864956321457960297238686362939612644 (0x469DBBA698AEC86AA5A0BA55DFC2DDE4)

Полное имя : E:UMF MIAMI 2013Weekend 1 (day 2)1_Madeon, Chuckie,Porter Robinson.mkv

Формат : Matroska

Версия формата : Version 2

Размер файла : 1,83 Гбайт

Продолжительность : 1 ч. 46 м.

Режим общего битрейта : Переменный

Общий поток : 2455 Кбит/сек

Программа кодирования : Lavf55.0.100

Библиотека кодирования : Lavf55.0.100


Видео

Идентификатор : 1

Формат : AVC

Формат/Информация : Advanced Video Codec

Профиль формата : Main@L3.1

Параметр CABAC формата : Да

Параметр ReFrames формата : 3 кадра

Идентификатор кодека : V_MPEG4/ISO/AVC

Продолжительность : 1 ч. 46 м.

Вид битрейта : Переменный

Максимальный битрейт : 40,0 Мбит/сек

Ширина : 1280 пикселей

Высота : 720 пикселей

Соотношение сторон : 16:9

Режим частоты кадров : Постоянный

Частота кадров : 30,000 кадров/сек

Цветовое пространство : YUV

Субдискретизация насыщенности : 4:2:0

Битовая глубина : 8 бит

Тип развёртки : Прогрессивная

Default : Да

Forced : Нет


Аудио

Идентификатор : 2

Формат : AAC

Формат/Информация : Advanced Audio Codec

Идентификатор кодека : A_AAC

Продолжительность : 1 ч. 46 м.

Каналы : 2 канала

Частота : 48,0 КГц

Метод сжатия : С потерями

Default : Да

Forced : Нет


Общее

Полное имя : E:UMF MIAMI 2013Weekend 1 (day 2)2_Hardwell (FULL HD).MP4

Формат : MPEG-4

Профиль формата : Base Media / Version 2

Идентификатор кодека : mp42

Размер файла : 2,46 Гбайт

Продолжительность : 56 м.

Режим общего битрейта : Переменный

Общий поток : 6182 Кбит/сек

Дата кодирования : UTC 2013-03-16 22:53:45

Дата пометки : UTC 2013-03-16 22:53:45

gsst : 0

gstd : 3412705

gssd : BB22DFB0BHH1363680092713293

gshh : r8---sn-gvnuxaxjvh-bvwl.c.youtube.com


Видео

Идентификатор : 1

Формат : AVC

Формат/Информация : Advanced Video Codec

Профиль формата : High@L4.0

Параметр CABAC формата : Да

Параметр ReFrames формата : 1 кадр

Идентификатор кодека : avc1

Идентификатор кодека/Информация : Advanced Video Coding

Продолжительность : 56 м.

Битрейт : 5988 Кбит/сек

Максимальный битрейт : 14,4 Мбит/сек

Ширина : 1920 пикселей

Высота : 1080 пикселей

Соотношение сторон : 16:9

Режим частоты кадров : Постоянный

Частота кадров : 29,970 кадров/сек

Цветовое пространство : YUV

Субдискретизация насыщенности : 4:2:0

Битовая глубина : 8 бит

Тип развёртки : Прогрессивная

Бит/(Пиксели*Кадры) : 0.096

Размер потока : 2,38 Гбайт (97%)

Дата пометки : UTC 2013-03-16 23:02:47


Аудио

Идентификатор : 2

Формат : AAC

Формат/Информация : Advanced Audio Codec

Профиль формата : LC

Идентификатор кодека : 40

Продолжительность : 56 м.

Вид битрейта : Переменный

Битрейт : 192 Кбит/сек

Максимальный битрейт : 203 Кбит/сек

Каналы : 2 канала

Расположение каналов : Front: L R

Частота : 44,1 КГц

Метод сжатия : С потерями

Размер потока : 78,1 Мбайт (3%)

Заголовок : IsoMedia File Produced by Google, 5-11-2011

Дата кодирования : UTC 2013-03-16 22:59:54

Дата пометки : UTC 2013-03-16 23:02:47


Общее

Уникальный идентификатор : 159625186831981814190993203635632770160 (0x7816B15615EA3443D41A30CD6D7C8C70)

Полное имя : E:UMF MIAMI 2013Weekend 1 (day 2)3_Knife Party.mkv

Формат : Matroska

Версия формата : Version 2

Размер файла : 1008 Мбайт

Продолжительность : 57 м.

Режим общего битрейта : Переменный

Общий поток : 2439 Кбит/сек

Программа кодирования : Lavf55.0.100

Библиотека кодирования : Lavf55.0.100


Видео

Идентификатор : 1

Формат : AVC

Формат/Информация : Advanced Video Codec

Профиль формата : Main@L3.1

Параметр CABAC формата : Да

Параметр ReFrames формата : 3 кадра

Идентификатор кодека : V_MPEG4/ISO/AVC

Продолжительность : 57 м.

Вид битрейта : Переменный

Максимальный битрейт : 40,0 Мбит/сек

Ширина : 1280 пикселей

Высота : 720 пикселей

Соотношение сторон : 16:9

Режим частоты кадров : Постоянный

Частота кадров : 30,000 кадров/сек

Цветовое пространство : YUV

Субдискретизация насыщенности : 4:2:0

Битовая глубина : 8 бит

Тип развёртки : Прогрессивная

Default : Да

Forced : Нет


Аудио

Идентификатор : 2

Формат : AAC

Формат/Информация : Advanced Audio Codec

Идентификатор кодека : A_AAC

Продолжительность : 57 м.

Каналы : 2 канала

Частота : 48,0 КГц

Метод сжатия : С потерями

Задержка видео : -459 мс.

Default : Да

Forced : Нет


Общее

Уникальный идентификатор : 241751321127662482871213170006744715732 (0xB5DF9C605ECB8DC1537AD09F3D4551D4)

Полное имя : E:UMF MIAMI 2013Weekend 1 (day 2)4_Carl Cox, Kaskade, Laidback Luke, Martin Solveig, Deadmau5.mkv

Формат : Matroska

Версия формата : Version 2

Размер файла : 3,05 Гбайт

Продолжительность : 3 ч. 5 м.

Общий поток : 2353 Кбит/сек

Программа кодирования : Lavf55.0.100

Библиотека кодирования : Lavf55.0.100


Видео

Идентификатор : 1

Формат : AVC

Формат/Информация : Advanced Video Codec

Профиль формата : Main@L3.1

Параметр CABAC формата : Да

Параметр ReFrames формата : 3 кадра

Идентификатор кодека : V_MPEG4/ISO/AVC

Продолжительность : 3 ч. 5 м.

Ширина : 1280 пикселей

Высота : 720 пикселей

Соотношение сторон : 16:9

Режим частоты кадров : Постоянный

Частота кадров : 30,000 кадров/сек

Цветовое пространство : YUV

Субдискретизация насыщенности : 4:2:0

Битовая глубина : 8 бит

Тип развёртки : Прогрессивная

Default : Да

Forced : Нет


Аудио

Идентификатор : 2

Формат : AAC

Формат/Информация : Advanced Audio Codec

Идентификатор кодека : A_AAC

Продолжительность : 3 ч. 5 м.

Каналы : 2 канала

Частота : 48,0 КГц

Метод сжатия : С потерями

Задержка видео : -2 с. 46 мс.

Default : Да

Forced : Нет


Общее

Уникальный идентификатор : 176310325365907373485611794474969875799 (0x84A4222DE32ADFDA849C63BE56B44557)

Полное имя : E:UMF MIAMI 2013Weekend 1 (day 3)1_Flosstradamus, Dog Blood.mkv

Формат : Matroska

Версия формата : Version 2

Размер файла : 1,98 Гбайт

Продолжительность : 1 ч. 56 м.

Общий поток : 2437 Кбит/сек

Программа кодирования : Lavf55.0.100

Библиотека кодирования : Lavf55.0.100


Видео

Идентификатор : 1

Формат : AVC

Формат/Информация : Advanced Video Codec

Профиль формата : Main@L3.1

Параметр CABAC формата : Да

Параметр ReFrames формата : 3 кадра

Идентификатор кодека : V_MPEG4/ISO/AVC

Продолжительность : 1 ч. 56 м.

Ширина : 1280 пикселей

Высота : 720 пикселей

Соотношение сторон : 16:9

Режим частоты кадров : Постоянный

Частота кадров : 30,000 кадров/сек

Цветовое пространство : YUV

Субдискретизация насыщенности : 4:2:0

Битовая глубина : 8 бит

Тип развёртки : Прогрессивная

Default : Да

Forced : Нет


Аудио

Идентификатор : 2

Формат : AAC

Формат/Информация : Advanced Audio Codec

Профиль формата : LTP

Идентификатор кодека : A_AAC

Продолжительность : 1 ч. 56 м.

Каналы : 2 канала

Расположение каналов : Front: L R

Частота : 48,0 КГц

Метод сжатия : С потерями

Задержка видео : -2 с. 607 мс.

Default : Да

Forced : Нет


Общее

Полное имя : E:UMF MIAMI 2013Weekend 1 (day 3)1_Steve Aoki (Full HD).mp4

Формат : MPEG-4

Профиль формата : Base Media / Version 2

Идентификатор кодека : mp42

Размер файла : 2,50 Гбайт

Продолжительность : 57 м.

Режим общего битрейта : Переменный

Общий поток : 6184 Кбит/сек

Дата кодирования : UTC 2013-03-27 22:06:21

Дата пометки : UTC 2013-03-27 22:06:21

gsst : 0

gstd : 3478093

gssd : BB22DF9C5HH1364647213217137

gshh : r2---sn-gvnuxaxjvh-bvwe.c.youtube.com


Видео

Идентификатор : 1

Формат : AVC

Формат/Информация : Advanced Video Codec

Профиль формата : High@L4.0

Параметр CABAC формата : Да

Параметр ReFrames формата : 1 кадр

Идентификатор кодека : avc1

Идентификатор кодека/Информация : Advanced Video Coding

Продолжительность : 57 м.

Битрейт : 5990 Кбит/сек

Максимальный битрейт : 15,7 Мбит/сек

Ширина : 1920 пикселей

Высота : 1080 пикселей

Соотношение сторон : 16:9

Режим частоты кадров : Постоянный

Частота кадров : 29,970 кадров/сек

Цветовое пространство : YUV

Субдискретизация насыщенности : 4:2:0

Битовая глубина : 8 бит

Тип развёртки : Прогрессивная

Бит/(Пиксели*Кадры) : 0.096

Размер потока : 2,43 Гбайт (97%)

Дата пометки : UTC 2013-03-27 22:17:29


Аудио

Идентификатор : 2

Формат : AAC

Формат/Информация : Advanced Audio Codec

Профиль формата : LC

Идентификатор кодека : 40

Продолжительность : 57 м.

Вид битрейта : Переменный

Битрейт : 192 Кбит/сек

Максимальный битрейт : 203 Кбит/сек

Каналы : 2 канала

Расположение каналов : Front: L R

Частота : 44,1 КГц

Метод сжатия : С потерями

Размер потока : 79,6 Мбайт (3%)

Заголовок : IsoMedia File Produced by Google, 5-11-2011

Дата кодирования : UTC 2013-03-27 22:14:23

Дата пометки : UTC 2013-03-27 22:17:29


Общее

Уникальный идентификатор : 328403333505699374016457395565126645420 (0xF7102E6F2684A548605E65150C3676AC)

Полное имя : E:UMF MIAMI 2013Weekend 1 (day 3)2_Avicii, Crookers, Dillon Francis, Zedd, Bassnectar, Tiesto, Rusko.mkv

Формат : Matroska

Версия формата : Version 2

Размер файла : 2,46 Гбайт

Продолжительность : 2 ч. 25 м.

Общий поток : 2427 Кбит/сек

Программа кодирования : Lavf55.0.100

Библиотека кодирования : Lavf55.0.100


Видео

Идентификатор : 1

Формат : AVC

Формат/Информация : Advanced Video Codec

Профиль формата : Main@L3.1

Параметр CABAC формата : Да

Параметр ReFrames формата : 3 кадра

Идентификатор кодека : V_MPEG4/ISO/AVC

Продолжительность : 2 ч. 25 м.

Ширина : 1280 пикселей

Высота : 720 пикселей

Соотношение сторон : 16:9

Режим частоты кадров : Постоянный

Частота кадров : 30,000 кадров/сек

Цветовое пространство : YUV

Субдискретизация насыщенности : 4:2:0

Битовая глубина : 8 бит

Тип развёртки : Прогрессивная

Default : Да

Forced : Нет


Аудио

Идентификатор : 2

Формат : AAC

Формат/Информация : Advanced Audio Codec

Идентификатор кодека : A_AAC

Продолжительность : 2 ч. 25 м.

Каналы : 2 канала

Частота : 48,0 КГц

Метод сжатия : С потерями

Задержка видео : -2 с. 978 мс.

Default : Да

Forced : Нет


Общее

Уникальный идентификатор : 163519573220241819316109071107407119529 (0x7B04B968D47949CBA8D773352E9284A9)

Полное имя : E:UMF MIAMI 2013Weekend 1 (day 3)3_Above Beyond (Full HD).webm

Формат : WebM

Версия формата : Version 2

Размер файла : 1,35 Гбайт

Продолжительность : 37 м.

Режим общего битрейта : Переменный

Общий поток : 5175 Кбит/сек

Программа кодирования : Google

Библиотека кодирования : Google


Видео

Идентификатор : 1

Формат : VP8

Идентификатор кодека : V_VP8

Продолжительность : 37 м.

Битрейт : 4770 Кбит/сек

Ширина : 1920 пикселей

Высота : 1080 пикселей

Соотношение сторон : 16:9

Режим частоты кадров : Постоянный

Частота кадров : 29,970 кадров/сек

Метод сжатия : С потерями

Бит/(Пиксели*Кадры) : 0.077

Размер потока : 1,25 Гбайт (92%)

Default : Да

Forced : Нет


Аудио

Идентификатор : 2

Формат : Vorbis

Параметр Floor формата : 1

Идентификатор кодека : A_VORBIS

Продолжительность : 37 м.

Вид битрейта : Переменный

Битрейт : 192 Кбит/сек

Каналы : 2 канала

Частота : 44,1 КГц

Метод сжатия : С потерями

Задержка видео : -25 мс.

Размер потока : 51,4 Мбайт (4%)

Default : Да

Forced : Нет

Программа кодирования : Google


Общее

Уникальный идентификатор : 104366484611034678696208290441341809187 (0x4E8440F86661CD42824AD02253E9B223)

Полное имя : E:UMF MIAMI 2013Weekend 1 (day 3)3_Above Beyond, Sub Focus.mkv

Формат : Matroska

Версия формата : Version 2

Размер файла : 952 Мбайт

Продолжительность : 55 м.

Общий поток : 2382 Кбит/сек

Программа кодирования : Lavf55.0.100

Библиотека кодирования : Lavf55.0.100


Видео

Идентификатор : 1

Формат : AVC

Формат/Информация : Advanced Video Codec

Профиль формата : Main@L3.1

Параметр CABAC формата : Да

Параметр ReFrames формата : 3 кадра

Идентификатор кодека : V_MPEG4/ISO/AVC

Продолжительность : 55 м.

Ширина : 1280 пикселей

Высота : 720 пикселей

Соотношение сторон : 16:9

Режим частоты кадров : Постоянный

Частота кадров : 30,000 кадров/сек

Цветовое пространство : YUV

Субдискретизация насыщенности : 4:2:0

Битовая глубина : 8 бит

Тип развёртки : Прогрессивная

Default : Да

Forced : Нет


Аудио

Идентификатор : 2

Формат : AAC

Формат/Информация : Advanced Audio Codec

Идентификатор кодека : A_AAC

Продолжительность : 55 м.

Каналы : 2 канала

Частота : 48,0 КГц

Метод сжатия : С потерями

Задержка видео : -1 с. 783 мс.

Default : Да

Forced : Нет


Общее

Уникальный идентификатор : 145785823334423750357534873846560389353 (0x6DAD540906141D0784082D121614F8E9)

Полное имя : E:UMF MIAMI 2013Weekend 1 (day 3)4_Armin van Buuren (Full HD).webm

Формат : WebM

Версия формата : Version 2

Размер файла : 2,32 Гбайт

Продолжительность : 57 м.

Режим общего битрейта : Переменный

Общий поток : 5823 Кбит/сек

Программа кодирования : Google

Библиотека кодирования : Google


Видео

Идентификатор : 1

Формат : VP8

Идентификатор кодека : V_VP8

Продолжительность : 57 м.

Битрейт : 5392 Кбит/сек

Ширина : 1920 пикселей

Высота : 1080 пикселей

Соотношение сторон : 16:9

Режим частоты кадров : Постоянный

Частота кадров : 29,970 кадров/сек

Метод сжатия : С потерями

Бит/(Пиксели*Кадры) : 0.087

Размер потока : 2,15 Гбайт (93%)

Default : Да

Forced : Нет


Аудио

Идентификатор : 2

Формат : Vorbis

Параметр Floor формата : 1

Идентификатор кодека : A_VORBIS

Продолжительность : 57 м.

Вид битрейта : Переменный

Битрейт : 192 Кбит/сек

Каналы : 2 канала

Частота : 44,1 КГц

Метод сжатия : С потерями

Задержка видео : -25 мс.

Размер потока : 78,4 Мбайт (3%)

Default : Да

Forced : Нет

Программа кодирования : Google


Общее

Уникальный идентификатор : 18345150507449119959480105561107308903 (0xDCD25C092513FE1AC418BB3B579A167)

Полное имя : E:UMF MIAMI 2013Weekend 1 (day 3)4_Armin van Buuren.mkv

Формат : Matroska

Версия формата : Version 2

Размер файла : 1,04 Гбайт

Продолжительность : 1 ч. 2 м.

Общий поток : 2406 Кбит/сек

Программа кодирования : Lavf55.0.100

Библиотека кодирования : Lavf55.0.100


Видео

Идентификатор : 1

Формат : AVC

Формат/Информация : Advanced Video Codec

Профиль формата : Main@L3.1

Параметр CABAC формата : Да

Параметр ReFrames формата : 3 кадра

Идентификатор кодека : V_MPEG4/ISO/AVC

Продолжительность : 1 ч. 2 м.

Ширина : 1280 пикселей

Высота : 720 пикселей

Соотношение сторон : 16:9

Режим частоты кадров : Постоянный

Частота кадров : 30,000 кадров/сек

Цветовое пространство : YUV

Субдискретизация насыщенности : 4:2:0

Битовая глубина : 8 бит

Тип развёртки : Прогрессивная

Default : Да

Forced : Нет


Аудио

Идентификатор : 2

Формат : AAC

Формат/Информация : Advanced Audio Codec

Идентификатор кодека : A_AAC

Продолжительность : 1 ч. 2 м.

Каналы : 2 канала

Частота : 48,0 КГц

Метод сжатия : С потерями

Задержка видео : -14 мс.

Default : Да

Forced : Нет


Общее

Уникальный идентификатор : 1159389811168403174549917376346742116 (0xDF4A54BC2E04D1AF27DBA7CCCE5D64)

Полное имя : E:UMF MIAMI 2013Weekend 2 (day 1)1_interview Hardwell Armin van Buuren.mkv

Формат : Matroska

Версия формата : Version 2

Размер файла : 1,12 Гбайт

Продолжительность : 1 ч. 9 м.

Общий поток : 2295 Кбит/сек

Программа кодирования : Lavf55.0.100

Библиотека кодирования : Lavf55.0.100


Видео

Идентификатор : 1

Формат : AVC

Формат/Информация : Advanced Video Codec

Профиль формата : Main@L3.1

Параметр CABAC формата : Да

Параметр ReFrames формата : 3 кадра

Идентификатор кодека : V_MPEG4/ISO/AVC

Продолжительность : 1 ч. 9 м.

Ширина : 1280 пикселей

Высота : 720 пикселей

Соотношение сторон : 16:9

Режим частоты кадров : Постоянный

Частота кадров : 30,000 кадров/сек

Цветовое пространство : YUV

Субдискретизация насыщенности : 4:2:0

Битовая глубина : 8 бит

Тип развёртки : Прогрессивная

Default : Да

Forced : Нет


Аудио

Идентификатор : 2

Формат : AAC

Формат/Информация : Advanced Audio Codec

Идентификатор кодека : A_AAC

Продолжительность : 1 ч. 9 м.

Каналы : 2 канала

Частота : 48,0 КГц

Метод сжатия : С потерями

Задержка видео : -19 мс.

Default : Да

Forced : Нет


Общее

Уникальный идентификатор : 20687802655601441388228653551582573170 (0xF90536BADCC8D8BEE41E3FEDCE5F272)

Полное имя : E:UMF MIAMI 2013Weekend 2 (day 1)2_Swanky Tunes vs. Hard Rock Sofa.mkv

Формат : Matroska

Версия формата : Version 2

Размер файла : 641 Мбайт

Продолжительность : 36 м.

Общий поток : 2452 Кбит/сек

Программа кодирования : Lavf55.0.100

Библиотека кодирования : Lavf55.0.100


Видео

Идентификатор : 1

Формат : AVC

Формат/Информация : Advanced Video Codec

Профиль формата : Main@L3.1

Параметр CABAC формата : Да

Параметр ReFrames формата : 3 кадра

Идентификатор кодека : V_MPEG4/ISO/AVC

Продолжительность : 36 м.

Ширина : 1280 пикселей

Высота : 720 пикселей

Соотношение сторон : 16:9

Режим частоты кадров : Постоянный

Частота кадров : 30,000 кадров/сек

Цветовое пространство : YUV

Субдискретизация насыщенности : 4:2:0

Битовая глубина : 8 бит

Тип развёртки : Прогрессивная

Default : Да

Forced : Нет


Аудио

Идентификатор : 2

Формат : AAC

Формат/Информация : Advanced Audio Codec

Идентификатор кодека : A_AAC

Продолжительность : 36 м.

Каналы : 2 канала

Частота : 48,0 КГц

Метод сжатия : С потерями

Задержка видео : -1 с. 524 мс.

Default : Да

Forced : Нет


Общее

Уникальный идентификатор : 332310780341434191003169964416782074713 (0xFA00BA6FEAE229483F44490B984C8359)

Полное имя : E:UMF MIAMI 2013Weekend 2 (day 1)3_R3hab (Full HD).webm

Формат : WebM

Версия формата : Version 2

Размер файла : 2,77 Гбайт

Продолжительность : 46 м.

Режим общего битрейта : Переменный

Общий поток : 8583 Кбит/сек

Программа кодирования : Google

Библиотека кодирования : Google


Видео

Идентификатор : 1

Формат : VP8

Идентификатор кодека : V_VP8

Продолжительность : 46 м.

Битрейт : 8042 Кбит/сек

Ширина : 1920 пикселей

Высота : 1080 пикселей

Соотношение сторон : 16:9

Режим частоты кадров : Постоянный

Частота кадров : 29,970 кадров/сек

Метод сжатия : С потерями

Бит/(Пиксели*Кадры) : 0.129

Размер потока : 2,60 Гбайт (94%)

Default : Да

Forced : Нет


Аудио

Идентификатор : 2

Формат : Vorbis

Параметр Floor формата : 1

Идентификатор кодека : A_VORBIS

Продолжительность : 46 м.

Вид битрейта : Переменный

Битрейт : 192 Кбит/сек

Каналы : 2 канала

Частота : 44,1 КГц

Метод сжатия : С потерями

Задержка видео : -25 мс.

Размер потока : 63,5 Мбайт (2%)

Default : Да

Forced : Нет

Программа кодирования : Google


Общее

Уникальный идентификатор : 156974876964663949234716612892997133480 (0x761842F8A0FAE10E398D267F001724A8)

Полное имя : E:UMF MIAMI 2013Weekend 2 (day 1)4_Umek, Adam Beyer, Martin Solveig.mkv

Формат : Matroska

Версия формата : Version 2

Размер файла : 1,21 Гбайт

Продолжительность : 1 ч. 10 м.

Общий поток : 2448 Кбит/сек

Программа кодирования : Lavf55.0.100

Библиотека кодирования : Lavf55.0.100


Видео

Идентификатор : 1

Формат : AVC

Формат/Информация : Advanced Video Codec

Профиль формата : Main@L3.1

Параметр CABAC формата : Да

Параметр ReFrames формата : 3 кадра

Идентификатор кодека : V_MPEG4/ISO/AVC

Продолжительность : 1 ч. 10 м.

Ширина : 1280 пикселей

Высота : 720 пикселей

Соотношение сторон : 16:9

Режим частоты кадров : Постоянный

Частота кадров : 30,000 кадров/сек

Цветовое пространство : YUV

Субдискретизация насыщенности : 4:2:0

Битовая глубина : 8 бит

Тип развёртки : Прогрессивная

Default : Да

Forced : Нет


Аудио

Идентификатор : 2

Формат : AAC

Формат/Информация : Advanced Audio Codec

Идентификатор кодека : A_AAC

Продолжительность : 1 ч. 10 м.

Каналы : 2 канала

Частота : 48,0 КГц

Метод сжатия : С потерями

Задержка видео : -2 с. 393 мс.

Default : Да

Forced : Нет


Общее

Уникальный идентификатор : 336566866267983966322293760601147910148 (0xFD346BACAA3BECBD0B96AFD822F52804)

Полное имя : E:UMF MIAMI 2013Weekend 2 (day 1)5_Eric Prydz.mkv

Формат : Matroska

Версия формата : Version 2

Размер файла : 1,00 Гбайт

Продолжительность : 59 м.

Общий поток : 2431 Кбит/сек

Программа кодирования : Lavf55.0.100

Библиотека кодирования : Lavf55.0.100


Видео

Идентификатор : 1

Формат : AVC

Формат/Информация : Advanced Video Codec

Профиль формата : Main@L3.1

Параметр CABAC формата : Да

Параметр ReFrames формата : 3 кадра

Идентификатор кодека : V_MPEG4/ISO/AVC

Продолжительность : 59 м.

Ширина : 1280 пикселей

Высота : 720 пикселей

Соотношение сторон : 16:9

Режим частоты кадров : Постоянный

Частота кадров : 30,000 кадров/сек

Цветовое пространство : YUV

Субдискретизация насыщенности : 4:2:0

Битовая глубина : 8 бит

Тип развёртки : Прогрессивная

Default : Да

Forced : Нет


Аудио

Идентификатор : 2

Формат : AAC

Формат/Информация : Advanced Audio Codec

Идентификатор кодека : A_AAC

Продолжительность : 59 м.

Каналы : 2 канала

Частота : 48,0 КГц

Метод сжатия : С потерями

Задержка видео : -2 с. 14 мс.

Default : Да

Forced : Нет


Общее

Уникальный идентификатор : 283244663324838174555634758651969850209 (0xD516F01826B7BBCDBE9C36711D50CB61)

Полное имя : E:UMF MIAMI 2013Weekend 2 (day 1)6_Carl Cox.mkv

Формат : Matroska

Версия формата : Version 2

Размер файла : 1011 Мбайт

Продолжительность : 57 м.

Общий поток : 2439 Кбит/сек

Программа кодирования : Lavf55.0.100

Библиотека кодирования : Lavf55.0.100


Видео

Идентификатор : 1

Формат : AVC

Формат/Информация : Advanced Video Codec

Профиль формата : Main@L3.1

Параметр CABAC формата : Да

Параметр ReFrames формата : 3 кадра

Идентификатор кодека : V_MPEG4/ISO/AVC

Продолжительность : 57 м.

Ширина : 1280 пикселей

Высота : 720 пикселей

Соотношение сторон : 16:9

Режим частоты кадров : Постоянный

Частота кадров : 30,000 кадров/сек

Цветовое пространство : YUV

Субдискретизация насыщенности : 4:2:0

Битовая глубина : 8 бит

Тип развёртки : Прогрессивная

Default : Да

Forced : Нет


Аудио

Идентификатор : 2

Формат : AAC

Формат/Информация : Advanced Audio Codec

Идентификатор кодека : A_AAC

Продолжительность : 57 м.

Каналы : 2 канала

Частота : 48,0 КГц

Метод сжатия : С потерями

Задержка видео : -1 с. 55 мс.

Default : Да

Forced : Нет


Общее

Уникальный идентификатор : 319203163641002885268309474089707657774 (0xF0244B09E875192C27710E8A46065A2E)

Полное имя : E:UMF MIAMI 2013Weekend 2 (day 1)7_Avicii.mkv

Формат : Matroska

Версия формата : Version 2

Размер файла : 736 Мбайт

Продолжительность : 44 м.

Общий поток : 2332 Кбит/сек

Программа кодирования : Lavf55.0.100

Библиотека кодирования : Lavf55.0.100


Видео

Идентификатор : 1

Формат : AVC

Формат/Информация : Advanced Video Codec

Профиль формата : Main@L3.1

Параметр CABAC формата : Да

Параметр ReFrames формата : 3 кадра

Идентификатор кодека : V_MPEG4/ISO/AVC

Продолжительность : 44 м.

Ширина : 1280 пикселей

Высота : 720 пикселей

Соотношение сторон : 16:9

Режим частоты кадров : Постоянный

Частота кадров : 30,000 кадров/сек

Цветовое пространство : YUV

Субдискретизация насыщенности : 4:2:0

Битовая глубина : 8 бит

Тип развёртки : Прогрессивная

Default : Да

Forced : Нет


Аудио

Идентификатор : 2

Формат : AAC

Формат/Информация : Advanced Audio Codec

Идентификатор кодека : A_AAC

Продолжительность : 44 м.

Каналы : 2 канала

Частота : 48,0 КГц

Метод сжатия : С потерями

Задержка видео : -533 мс.

Default : Да

Forced : Нет


Общее

Уникальный идентификатор : 278512346302320691531383527918673794483 (0xD18786D9E88E9A18B9236335B84B15B3)

Полное имя : E:UMF MIAMI 2013Weekend 2 (day 1)8_Fedde Le Grand, Tiesto.mkv

Формат : Matroska

Версия формата : Version 2

Размер файла : 666 Мбайт

Продолжительность : 38 м.

Общий поток : 2428 Кбит/сек

Программа кодирования : Lavf55.0.100

Библиотека кодирования : Lavf55.0.100


Видео

Идентификатор : 1

Формат : AVC

Формат/Информация : Advanced Video Codec

Профиль формата : Main@L3.1

Параметр CABAC формата : Да

Параметр ReFrames формата : 3 кадра

Идентификатор кодека : V_MPEG4/ISO/AVC

Продолжительность : 38 м.

Ширина : 1280 пикселей

Высота : 720 пикселей

Соотношение сторон : 16:9

Режим частоты кадров : Постоянный

Частота кадров : 30,000 кадров/сек

Цветовое пространство : YUV

Субдискретизация насыщенности : 4:2:0

Битовая глубина : 8 бит

Тип развёртки : Прогрессивная

Default : Да

Forced : Нет


Аудио

Идентификатор : 2

Формат : AAC

Формат/Информация : Advanced Audio Codec

Идентификатор кодека : A_AAC

Продолжительность : 38 м.

Каналы : 2 канала

Частота : 48,0 КГц

Метод сжатия : С потерями

Задержка видео : -1 с. 214 мс.

Default : Да

Forced : Нет


Общее

Уникальный идентификатор : 338947645180146574207693933346047351173 (0xFEFEF123307FEBEF48CAF84B538F5985)

Полное имя : E:UMF MIAMI 2013Weekend 2 (day 1)9_Luciano.mkv

Формат : Matroska

Версия формата : Version 2

Размер файла : 1,06 Гбайт

Продолжительность : 1 ч. 3 м.

Общий поток : 2382 Кбит/сек

Программа кодирования : Lavf55.0.100

Библиотека кодирования : Lavf55.0.100


Видео

Идентификатор : 1

Формат : AVC

Формат/Информация : Advanced Video Codec

Профиль формата : Main@L3.1

Параметр CABAC формата : Да

Параметр ReFrames формата : 3 кадра

Идентификатор кодека : V_MPEG4/ISO/AVC

Продолжительность : 1 ч. 3 м.

Ширина : 1280 пикселей

Высота : 720 пикселей

Соотношение сторон : 16:9

Режим частоты кадров : Постоянный

Частота кадров : 30,000 кадров/сек

Цветовое пространство : YUV

Субдискретизация насыщенности : 4:2:0

Битовая глубина : 8 бит

Тип развёртки : Прогрессивная

Default : Да

Forced : Нет


Аудио

Идентификатор : 2

Формат : AAC

Формат/Информация : Advanced Audio Codec

Идентификатор кодека : A_AAC

Продолжительность : 1 ч. 3 м.

Каналы : 2 канала

Частота : 48,0 КГц

Метод сжатия : С потерями

Задержка видео : -4 с. 214 мс.

Default : Да

Forced : Нет


Общее

Уникальный идентификатор : 74568055853250401289807972658944413456 (0x38194900A7CC0C34847A73BFEF200F10)

Полное имя : E:UMF MIAMI 2013Weekend 2 (day 2)1_Chuckie.mkv

Формат : Matroska

Версия формата : Version 2

Размер файла : 794 Мбайт

Продолжительность : 45 м.

Общий поток : 2432 Кбит/сек

Программа кодирования : Lavf55.0.100

Библиотека кодирования : Lavf55.0.100


Видео

Идентификатор : 1

Формат : AVC

Формат/Информация : Advanced Video Codec

Профиль формата : Main@L3.1

Параметр CABAC формата : Да

Параметр ReFrames формата : 3 кадра

Идентификатор кодека : V_MPEG4/ISO/AVC

Продолжительность : 45 м.

Ширина : 1280 пикселей

Высота : 720 пикселей

Соотношение сторон : 16:9

Режим частоты кадров : Постоянный

Частота кадров : 30,000 кадров/сек

Цветовое пространство : YUV

Субдискретизация насыщенности : 4:2:0

Битовая глубина : 8 бит

Тип развёртки : Прогрессивная

Default : Да

Forced : Нет


Аудио

Идентификатор : 2

Формат : AAC

Формат/Информация : Advanced Audio Codec

Идентификатор кодека : A_AAC

Продолжительность : 45 м.

Каналы : 2 канала

Частота : 48,0 КГц

Метод сжатия : С потерями

Задержка видео : -59 мс.

Default : Да

Forced : Нет


Общее

Уникальный идентификатор : 79159679983845454336653183208363036919 (0x3B8D998CF1EAED428B720B105BBA90F7)

Полное имя : E:UMF MIAMI 2013Weekend 2 (day 2)2_Laidback Luke (FULL HD).webm

Формат : WebM

Версия формата : Version 2

Размер файла : 2,65 Гбайт

Продолжительность : 59 м.

Режим общего битрейта : Переменный

Общий поток : 6390 Кбит/сек

Программа кодирования : Google

Библиотека кодирования : Google


Видео

Идентификатор : 1

Формат : VP8

Идентификатор кодека : V_VP8

Продолжительность : 59 м.

Битрейт : 5936 Кбит/сек

Ширина : 1920 пикселей

Высота : 1080 пикселей

Соотношение сторон : 16:9

Режим частоты кадров : Постоянный

Частота кадров : 29,970 кадров/сек

Метод сжатия : С потерями

Бит/(Пиксели*Кадры) : 0.096

Размер потока : 2,46 Гбайт (93%)

Default : Да

Forced : Нет


Аудио

Идентификатор : 2

Формат : Vorbis

Параметр Floor формата : 1

Идентификатор кодека : A_VORBIS

Продолжительность : 59 м.

Вид битрейта : Переменный

Битрейт : 192 Кбит/сек

Каналы : 2 канала

Частота : 44,1 КГц

Метод сжатия : С потерями

Задержка видео : -25 мс.

Размер потока : 81,4 Мбайт (3%)

Default : Да

Forced : Нет

Программа кодирования : Google


Общее

Уникальный идентификатор : 1239320111467664457835312011704941713 (0xEEAF32F5B91BF61C78F1E3E1CE3C91)

Полное имя : E:UMF MIAMI 2013Weekend 2 (day 2)3_Cirez D.mkv

Формат : Matroska

Версия формата : Version 2

Размер файла : 292 Мбайт

Продолжительность : 16 м.

Общий поток : 2441 Кбит/сек

Программа кодирования : Lavf55.0.100

Библиотека кодирования : Lavf55.0.100


Видео

Идентификатор : 1

Формат : AVC

Формат/Информация : Advanced Video Codec

Профиль формата : Main@L3.1

Параметр CABAC формата : Да

Параметр ReFrames формата : 3 кадра

Идентификатор кодека : V_MPEG4/ISO/AVC

Продолжительность : 16 м.

Ширина : 1280 пикселей

Высота : 720 пикселей

Соотношение сторон : 16:9

Режим частоты кадров : Постоянный

Частота кадров : 30,000 кадров/сек

Цветовое пространство : YUV

Субдискретизация насыщенности : 4:2:0

Битовая глубина : 8 бит

Тип развёртки : Прогрессивная

Default : Да

Forced : Нет


Аудио

Идентификатор : 2

Формат : AAC

Формат/Информация : Advanced Audio Codec

Идентификатор кодека : A_AAC

Продолжительность : 16 м.

Каналы : 2 канала

Частота : 48,0 КГц

Метод сжатия : С потерями

Задержка видео : -1 с. 969 мс.

Default : Да

Forced : Нет


Общее

Уникальный идентификатор : 263849080271178150664837894839796478904 (0xC67F7C04DF0A1CAC82A26D570453B3B8)

Полное имя : E:UMF MIAMI 2013Weekend 2 (day 2)4_Krewella.mkv

Формат : Matroska

Версия формата : Version 2

Размер файла : 1,04 Гбайт

Продолжительность : 1 ч. 1 м.

Общий поток : 2419 Кбит/сек

Программа кодирования : Lavf55.0.100

Библиотека кодирования : Lavf55.0.100


Видео

Идентификатор : 1

Формат : AVC

Формат/Информация : Advanced Video Codec

Профиль формата : Main@L3.1

Параметр CABAC формата : Да

Параметр ReFrames формата : 3 кадра

Идентификатор кодека : V_MPEG4/ISO/AVC

Продолжительность : 1 ч. 1 м.

Ширина : 1280 пикселей

Высота : 720 пикселей

Соотношение сторон : 16:9

Режим частоты кадров : Постоянный

Частота кадров : 30,000 кадров/сек

Цветовое пространство : YUV

Субдискретизация насыщенности : 4:2:0

Битовая глубина : 8 бит

Тип развёртки : Прогрессивная

Default : Да

Forced : Нет


Аудио

Идентификатор : 2

Формат : AAC

Формат/Информация : Advanced Audio Codec

Идентификатор кодека : A_AAC

Продолжительность : 1 ч. 1 м.

Каналы : 2 канала

Частота : 48,0 КГц

Метод сжатия : С потерями

Задержка видео : -3 с. 344 мс.

Default : Да

Forced : Нет


Общее

Уникальный идентификатор : 298341472412936161653472308848702977897 (0xE0727A3FE1D8BDE1576E07CA43EAF769)

Полное имя : E:UMF MIAMI 2013Weekend 2 (day 2)5_Fatboy Slim.mkv

Формат : Matroska

Версия формата : Version 2

Размер файла : 892 Мбайт

Продолжительность : 50 м.

Общий поток : 2454 Кбит/сек

Программа кодирования : Lavf55.0.100

Библиотека кодирования : Lavf55.0.100


Видео

Идентификатор : 1

Формат : AVC

Формат/Информация : Advanced Video Codec

Профиль формата : Main@L3.1

Параметр CABAC формата : Да

Параметр ReFrames формата : 3 кадра

Идентификатор кодека : V_MPEG4/ISO/AVC

Продолжительность : 50 м.

Ширина : 1280 пикселей

Высота
Скриншоты
Похожие файлы
Загрузка / Обновление
Категория Музыка / Мультимедиа RSS лента
Добавлен (3 года, 10 месяцев назад)
Просмотров 137 раз (a)
Взят 1 раз (a)
Файлы 44, 63.27 GB (67 930 919 069 байт)
Раздал ViKa  (Искать торренты)
Участники
Раздают (отдают): 0 (2), Скачивают (качают): 0 (1), Завершено: 0 (2)
Просматривают

« Родительский беспредел / Parental Guidance (2012) BDRemux 1080p | Лицензия -†- ¿? -†- Парк Юрского периода / Jurassic Park (1993-2013) BDRip 1080p | 3D-Video »

:: Список Комментариев
Нет комментариев.

 Нет комментариев

Счетчики
Рейтинг@Mail.ru


Поделитесь в социальных сетях


Быстрый Поиск





Спасибо Вам
Мы благодарны этим людям в поддержке сайта:
ilmarr, valmit2011, MMMNNNBBB
Попади и ты в этот блок, поставь оценку 5 и получи 300 MB к отдаче:
Войти на сайт сейчас.

Правообладателям
По всем вопросам сотрудничества, удаления авторских файлов "пачкой", просьба отписаться по адреcу:
abuse@muz-tracker.net

Наши группы в VK, OK