Самые активные релизы за неделю
Музыка / Мультимедиа Сериалы Фильмы / AVI / MKV / MP4 Фильмы / HD / Full HD / Blu-Ray / 2K / 4K
Hardsyle Music For Sports Games ( Club / 2017 )
  • Hardsyle Music For Sports Games ( Club / 2017 )
  • Виктор Цой - 55 лет: лучшие песни и хиты ( Рок / 2017 )
  • VA - Hot Summer Dance   [2017 / MP3 / 320] [Dance]
  • Magic Island - Music For Balearic People (Vol.8, Mixed By Roger Shah) (2CD) ( Trance / 2017 )
  • Monstercat Uncaged (Vol.1) ( Dubstep / 2017 )
  • Michael Jackson - 14 Songs From 14 Studio Albums ( Pop / 2017 )
  • VA - Русские Новинки Vol.22 from AGR (2011) MP3
  • DJ Farta - Пацанская сборка в тачку Vol.26 (2017) MP3
  • Хит-парад 70-х - Коллекция (4 CD) / Эстрада / FLAC, APE
  • Death Express: Original Hits Alternative ( Alternative / 2017 )
  • NME Hardstyle: Energy Hit Music Only ( Club / 2017 )
  • неАнгелы - Роман (2013) MP3 + Бонус


Популярные персоны кино из торрент-раздачи

:: Детали раздачи
Раздача является мультитрекерной — учтите, количество раздающих не будет совпадать с количеством участников на сайте (скачивание на клиентской стороне зависит от настроек µTorrent клиент программы, настройки -> Включить DHT, Обмен пирами и Поиск лок-х пиров).
Если висит надпись, пиры по нулям - не бойтесь, возможность скачать повторно раздачу - есть. Попробуйте, в случае отказа - прокоментируйте или нажмите на "Позвать скачавших".
Данная раздача является свободной — учитывается только количество отданного, количество скачанного не фиксируется.

Парк Юрского периода: Трилогия / Jurassic Park: Trilogy (1993-2001) BDRip 1080p Золотой торрент

Скачать Скачать .torrent файл (основная ссылка для скачивания файла)
Смотреть / Слушать онлайн просмотр (ссылка для просмотра файла через плагин 'Torrent Stream')
Magnet-ссылка (альтернативная ссылка для скачивания файла)
Теги / Метки фантастика, фэнтези, боевик, триллер, приключения, 1993
Описание
Парк Юрского периода: Трилогия / Jurassic Park: Trilogy (1993-2001) BDRip 1080p
Жанр: Фантастика, фэнтези, боевик, триллер, приключения
Год выпуска: 1993 / 1997 / 2001

Продолжительность: 02:06:37 / 02:08:40 / 01:32:21

Режиссёр: Стивен Спилберг, Джо Джонстон


Парк Юрского периода / Jurassic Park (1993) BDRip 1080p

x264 [info]: frame I:1140 Avg QP:21.94 size:198012

x264 [info]: frame P:56169 Avg QP:24.66 size: 87780

x264 [info]: frame B:124826 Avg QP:26.00 size: 50020



General

Unique ID : 202513050099835784193839806842533149243 (0x985A9840554C2573B4D6EF5708857A3B)

Complete name : E:Jurassic.Park.Trilogy.1993-2001.x264.BDRip.1080pJurassic.Park.1993.x264.BDRip.1080p.mkv

Format : Matroska

Format version : Version 4 / Version 2

File size : 13.0 GiB

Duration : 2h 6mn

Overall bit rate : 14.7 Mbps

Encoded date : UTC 2013-04-20 12:25:06

Writing application : mkvmerge v6.1.0 ('Old Devil') built on Mar 2 2013 14:32:37

Writing library : libebml v1.3.0 + libmatroska v1.4.0


Video

ID : 1

Format : AVC

Format/Info : Advanced Video Codec

Format profile : High@L4.1

Format settings, CABAC : Yes

Format settings, ReFrames : 4 frames

Codec ID : V_MPEG4/ISO/AVC

Duration : 2h 6mn

Bit rate : 12.0 Mbps

Width : 1 920 pixels

Height : 1 040 pixels

Display aspect ratio : 1.85:1

Frame rate mode : Constant

Frame rate : 23.976 fps

Color space : YUV

Chroma subsampling : 4:2:0

Bit depth : 8 bits

Scan type : Progressive

Bits/(Pixel*Frame) : 0.251

Stream size : 10.4 GiB (80%)

Writing library : x264 core 130 r2273 b3065e6

Encoding settings : cabac=1 / ref=4 / deblock=1:0:0 / analyse=0x3:0x133 / me=tesa / subme=11 / psy=1 / psy_rd=1.00:0.10 / mixed_ref=1 / me_range=32 / chroma_me=1 / trellis=2 / 8x8dct=1 / cqm=0 / deadzone=21,11 / fast_pskip=0 / chroma_qp_offset=-3 / threads=12 / lookahead_threads=1 / sliced_threads=0 / nr=0 / decimate=0 / interlaced=0 / bluray_compat=0 / constrained_intra=0 / bframes=3 / b_pyramid=2 / b_adapt=2 / b_bias=0 / direct=3 / weightb=1 / open_gop=0 / weightp=2 / keyint=240 / keyint_min=23 / scenecut=40 / intra_refresh=0 / rc_lookahead=60 / rc=2pass / mbtree=1 / bitrate=12011 / ratetol=1.0 / qcomp=0.60 / qpmin=0 / qpmax=69 / qpstep=4 / cplxblur=20.0 / qblur=0.5 / ip_ratio=1.40 / aq=1:1.00

Language : English

Default : Yes

Forced : No


Audio #1

ID : 2

Format : AC-3

Format/Info : Audio Coding 3

Mode extension : CM (complete main)

Format settings, Endianness : Big

Codec ID : A_AC3

Duration : 2h 6mn

Bit rate mode : Constant

Bit rate : 448 Kbps

Channel(s) : 6 channels

Channel positions : Front: L C R, Side: L R, LFE

Sampling rate : 48.0 KHz

Bit depth : 16 bits

Compression mode : Lossy

Stream size : 406 MiB (3%)

Title : AC3 5.1ch 448 kbps - Многоголосый, Universal

Language : Russian

Default : Yes

Forced : No


Audio #2

ID : 3

Format : AC-3

Format/Info : Audio Coding 3

Mode extension : CM (complete main)

Format settings, Endianness : Big

Codec ID : A_AC3

Duration : 2h 6mn

Bit rate mode : Constant

Bit rate : 192 Kbps

Channel(s) : 2 channels

Channel positions : Front: L R

Sampling rate : 48.0 KHz

Bit depth : 16 bits

Compression mode : Lossy

Stream size : 174 MiB (1%)

Title : AC3 2.0ch 192 kbps - Двухголосый, телеканал НТВ+

Language : Russian

Default : No

Forced : No


Audio #3

ID : 4

Format : AC-3

Format/Info : Audio Coding 3

Mode extension : CM (complete main)

Format settings, Endianness : Big

Codec ID : A_AC3

Duration : 2h 6mn

Bit rate mode : Constant

Bit rate : 640 Kbps

Channel(s) : 6 channels

Channel positions : Front: L C R, Side: L R, LFE

Sampling rate : 48.0 KHz

Bit depth : 16 bits

Compression mode : Lossy

Stream size : 580 MiB (4%)

Title : AC3 5.1ch 640 kbps - Авторский, Ю. Живов

Language : Russian

Default : No

Forced : No


Audio #4

ID : 5

Format : AC-3

Format/Info : Audio Coding 3

Mode extension : CM (complete main)

Format settings, Endianness : Big

Codec ID : A_AC3

Duration : 2h 6mn

Bit rate mode : Constant

Bit rate : 384 Kbps

Channel(s) : 6 channels

Channel positions : Front: L C R, Side: L R, LFE

Sampling rate : 48.0 KHz

Bit depth : 16 bits

Compression mode : Lossy

Stream size : 348 MiB (3%)

Title : AC3 5.1ch 384 kbps - Авторский, А. Гаврилов

Language : Russian

Default : No

Forced : No


Audio #5

ID : 6

Format : AC-3

Format/Info : Audio Coding 3

Mode extension : CM (complete main)

Format settings, Endianness : Big

Codec ID : A_AC3

Duration : 2h 6mn

Bit rate mode : Constant

Bit rate : 384 Kbps

Channel(s) : 2 channels

Channel positions : Front: L R

Sampling rate : 48.0 KHz

Bit depth : 16 bits

Compression mode : Lossy

Stream size : 348 MiB (3%)

Title : AC3 2.0ch 384 kbps - Авторский, Л. Володарский

Language : Russian

Default : No

Forced : No


Audio #6

ID : 7

Format : AC-3

Format/Info : Audio Coding 3

Mode extension : CM (complete main)

Format settings, Endianness : Big

Codec ID : A_AC3

Duration : 2h 6mn

Bit rate mode : Constant

Bit rate : 640 Kbps

Channel(s) : 6 channels

Channel positions : Front: L C R, Side: L R, LFE

Sampling rate : 48.0 KHz

Bit depth : 16 bits

Compression mode : Lossy

Stream size : 580 MiB (4%)

Title : AC3 5.1ch 640 kbps - Английский

Language : English

Default : No

Forced : No


Text #1

ID : 8

Format : UTF-8

Codec ID : S_TEXT/UTF8

Codec ID/Info : UTF-8 Plain Text

Title : Русские

Language : Russian

Default : No

Forced : No


Text #2

ID : 9

Format : UTF-8

Codec ID : S_TEXT/UTF8

Codec ID/Info : UTF-8 Plain Text

Title : Английские

Language : Russian

Default : No

Forced : No


Menu

00:00:00.000 : en:00:00:00.000

00:05:19.819 : en:00:05:19.819

00:10:14.739 : en:00:10:14.739

00:15:17.041 : en:00:15:17.041

00:19:33.214 : en:00:19:33.214

00:23:46.800 : en:00:23:46.800

00:31:40.148 : en:00:31:40.148

00:37:59.194 : en:00:37:59.194

00:40:26.674 : en:00:40:26.674

00:55:28.033 : en:00:55:28.033

01:01:43.241 : en:01:01:43.241

01:10:44.115 : en:01:10:44.115

01:20:01.130 : en:01:20:01.130

01:34:03.972 : en:01:34:03.972

01:39:45.313 : en:01:39:45.313

01:43:43.175 : en:01:43:43.175

01:47:56.845 : en:01:47:56.845

01:54:45.378 : en:01:54:45.378

01:58:04.411 : en:01:58:04.411

01:59:55.980 : en:01:59:55.980
Парк Юрского периода 2: Затерянный мир / The Lost World: Jurassic Park (1997) BDRip 1080p

x264 [info]: frame I:1133 Avg QP:17.35 size:164178

x264 [info]: frame P:59653 Avg QP:20.54 size: 68605

x264 [info]: frame B:124316 Avg QP:21.82 size: 33562



General

Unique ID : 243365992466898742334617681652858564773 (0xB71695D1E110D204A0D379AF892130A5)

Complete name : E:Jurassic.Park.Trilogy.1993-2001.x264.BDRip.1080pThe.Lost.World.Jurassic.Park.1997.x264.BDRip.1080p.mkv

Format : Matroska

Format version : Version 4 / Version 2

File size : 10.0 GiB

Duration : 2h 8mn

Overall bit rate : 11.1 Mbps

Encoded date : UTC 2013-04-20 12:52:16

Writing application : mkvmerge v6.1.0 ('Old Devil') built on Mar 2 2013 14:32:37

Writing library : libebml v1.3.0 + libmatroska v1.4.0


Video

ID : 1

Format : AVC

Format/Info : Advanced Video Codec

Format profile : High@L4.1

Format settings, CABAC : Yes

Format settings, ReFrames : 4 frames

Codec ID : V_MPEG4/ISO/AVC

Duration : 2h 8mn

Bit rate : 8 760 Kbps

Width : 1 920 pixels

Height : 1 040 pixels

Display aspect ratio : 1.85:1

Frame rate mode : Constant

Frame rate : 23.976 fps

Color space : YUV

Chroma subsampling : 4:2:0

Bit depth : 8 bits

Scan type : Progressive

Bits/(Pixel*Frame) : 0.183

Stream size : 7.67 GiB (77%)

Writing library : x264 core 130 r2273 b3065e6

Encoding settings : cabac=1 / ref=4 / deblock=1:-3:-3 / analyse=0x3:0x133 / me=tesa / subme=11 / psy=1 / psy_rd=1.00:0.10 / mixed_ref=1 / me_range=32 / chroma_me=1 / trellis=2 / 8x8dct=1 / cqm=0 / deadzone=21,11 / fast_pskip=0 / chroma_qp_offset=-3 / threads=12 / lookahead_threads=1 / sliced_threads=0 / nr=0 / decimate=0 / interlaced=0 / bluray_compat=0 / constrained_intra=0 / bframes=3 / b_pyramid=2 / b_adapt=2 / b_bias=0 / direct=3 / weightb=1 / open_gop=0 / weightp=2 / keyint=240 / keyint_min=23 / scenecut=40 / intra_refresh=0 / rc_lookahead=60 / rc=2pass / mbtree=1 / bitrate=8760 / ratetol=1.0 / qcomp=0.60 / qpmin=0 / qpmax=69 / qpstep=4 / cplxblur=20.0 / qblur=0.5 / ip_ratio=1.40 / aq=1:1.00

Language : English

Default : Yes

Forced : No


Audio #1

ID : 2

Format : AC-3

Format/Info : Audio Coding 3

Mode extension : CM (complete main)

Format settings, Endianness : Big

Codec ID : A_AC3

Duration : 2h 8mn

Bit rate mode : Constant

Bit rate : 640 Kbps

Channel(s) : 6 channels

Channel positions : Front: L C R, Side: L R, LFE

Sampling rate : 48.0 KHz

Bit depth : 16 bits

Compression mode : Lossy

Stream size : 590 MiB (6%)

Title : AC3 5.1ch 640 kbps - Многоголосый, Universal

Language : Russian

Default : Yes

Forced : No


Audio #2

ID : 3

Format : AC-3

Format/Info : Audio Coding 3

Mode extension : CM (complete main)

Format settings, Endianness : Big

Codec ID : A_AC3

Duration : 2h 8mn

Bit rate mode : Constant

Bit rate : 256 Kbps

Channel(s) : 2 channels

Channel positions : Front: L R

Sampling rate : 48.0 KHz

Bit depth : 16 bits

Compression mode : Lossy

Stream size : 236 MiB (2%)

Title : AC3 2.0ch 256 kbps - Дубляж, Ист-Вест с VHS

Language : Russian

Default : No

Forced : No


Audio #3

ID : 4

Format : AC-3

Format/Info : Audio Coding 3

Mode extension : CM (complete main)

Format settings, Endianness : Big

Codec ID : A_AC3

Duration : 2h 8mn

Bit rate mode : Constant

Bit rate : 640 Kbps

Channel(s) : 6 channels

Channel positions : Front: L C R, Side: L R, LFE

Sampling rate : 48.0 KHz

Bit depth : 16 bits

Compression mode : Lossy

Stream size : 590 MiB (6%)

Title : AC3 5.1ch 640 kbps - Авторский, Ю. Живов

Language : Russian

Default : No

Forced : No


Audio #4

ID : 5

Format : AC-3

Format/Info : Audio Coding 3

Mode extension : CM (complete main)

Format settings, Endianness : Big

Codec ID : A_AC3

Duration : 2h 8mn

Bit rate mode : Constant

Bit rate : 192 Kbps

Channel(s) : 2 channels

Channel positions : Front: L R

Sampling rate : 48.0 KHz

Bit depth : 16 bits

Compression mode : Lossy

Stream size : 177 MiB (2%)

Title : AC3 2.0ch 192 kbps - Авторский, С. Визгунов

Language : Russian

Default : No

Forced : No


Audio #5

ID : 6

Format : AC-3

Format/Info : Audio Coding 3

Mode extension : CM (complete main)

Format settings, Endianness : Big

Codec ID : A_AC3

Duration : 2h 8mn

Bit rate mode : Constant

Bit rate : 640 Kbps

Channel(s) : 6 channels

Channel positions : Front: L C R, Side: L R, LFE

Sampling rate : 48.0 KHz

Bit depth : 16 bits

Compression mode : Lossy

Stream size : 590 MiB (6%)

Title : AC3 5.1ch 640 kbps - Английский

Language : English

Default : No

Forced : No


Text #1

ID : 7

Format : UTF-8

Codec ID : S_TEXT/UTF8

Codec ID/Info : UTF-8 Plain Text

Title : Русские

Language : Russian

Default : No

Forced : No


Text #2

ID : 8

Format : UTF-8

Codec ID : S_TEXT/UTF8

Codec ID/Info : UTF-8 Plain Text

Title : Английские

Language : English

Default : No

Forced : No


Menu

00:00:00.000 : en:00:00:00.000

00:04:13.587 : en:00:04:13.587

00:08:38.309 : en:00:08:38.309

00:16:11.929 : en:00:16:11.929

00:21:43.135 : en:00:21:43.135

00:33:22.459 : en:00:33:22.459

00:41:48.798 : en:00:41:48.798

00:47:58.000 : en:00:47:58.000

00:53:40.592 : en:00:53:40.592

01:04:46.674 : en:01:04:46.674

01:12:59.709 : en:01:12:59.709

01:20:47.885 : en:01:20:47.885

01:26:18.965 : en:01:26:18.965

01:31:53.383 : en:01:31:53.383

01:42:23.637 : en:01:42:23.637

01:50:52.688 : en:01:50:52.688

01:52:13.936 : en:01:52:13.936

01:58:10.875 : en:01:58:10.875

01:59:51.601 : en:01:59:51.601

02:01:56.434 : en:02:01:56.434
Парк Юрского периода 3 / Jurassic Park III (2001) BDRip 1080p

x264 [info]: frame I:929 Avg QP:19.15 size:190933

x264 [info]: frame P:42320 Avg QP:21.77 size: 83369

x264 [info]: frame B:89590 Avg QP:22.51 size: 48188



General

Unique ID : 184791433357464180187816534859049291600 (0x8B05891653CB3649AC6FDABC32E74F50)

Complete name : E:Jurassic.Park.Trilogy.1993-2001.x264.BDRip.1080pJurassic.Park.III.2001.x264.BDRip.1080p.mkv

Format : Matroska

Format version : Version 4 / Version 2

File size : 9.00 GiB

Duration : 1h 32mn

Overall bit rate : 14.0 Mbps

Encoded date : UTC 2013-04-20 13:47:38

Writing application : mkvmerge v6.1.0 ('Old Devil') built on Mar 2 2013 14:32:37

Writing library : libebml v1.3.0 + libmatroska v1.4.0


Video

ID : 1

Format : AVC

Format/Info : Advanced Video Codec

Format profile : High@L4.1

Format settings, CABAC : Yes

Format settings, ReFrames : 4 frames

Codec ID : V_MPEG4/ISO/AVC

Duration : 1h 32mn

Bit rate : 11.6 Mbps

Width : 1 920 pixels

Height : 1 040 pixels

Display aspect ratio : 1.85:1

Frame rate mode : Constant

Frame rate : 23.976 fps

Color space : YUV

Chroma subsampling : 4:2:0

Bit depth : 8 bits

Scan type : Progressive

Bits/(Pixel*Frame) : 0.242

Stream size : 7.29 GiB (81%)

Writing library : x264 core 130 r2273 b3065e6

Encoding settings : cabac=1 / ref=4 / deblock=1:0:0 / analyse=0x3:0x133 / me=tesa / subme=11 / psy=1 / psy_rd=1.00:0.10 / mixed_ref=1 / me_range=32 / chroma_me=1 / trellis=2 / 8x8dct=1 / cqm=0 / deadzone=21,11 / fast_pskip=0 / chroma_qp_offset=-3 / threads=12 / lookahead_threads=1 / sliced_threads=0 / nr=0 / decimate=0 / interlaced=0 / bluray_compat=0 / constrained_intra=0 / bframes=3 / b_pyramid=2 / b_adapt=2 / b_bias=0 / direct=3 / weightb=1 / open_gop=0 / weightp=2 / keyint=240 / keyint_min=23 / scenecut=40 / intra_refresh=0 / rc_lookahead=60 / rc=2pass / mbtree=1 / bitrate=11588 / ratetol=1.0 / qcomp=0.60 / qpmin=0 / qpmax=69 / qpstep=4 / cplxblur=20.0 / qblur=0.5 / ip_ratio=1.40 / aq=1:1.00

Language : English

Default : Yes

Forced : No


Audio #1

ID : 2

Format : AC-3

Format/Info : Audio Coding 3

Mode extension : CM (complete main)

Format settings, Endianness : Big

Codec ID : A_AC3

Duration : 1h 32mn

Bit rate mode : Constant

Bit rate : 640 Kbps

Channel(s) : 6 channels

Channel positions : Front: L C R, Side: L R, LFE

Sampling rate : 48.0 KHz

Bit depth : 16 bits

Compression mode : Lossy

Stream size : 423 MiB (5%)

Title : AC3 5.1ch 640 kbps - Дубляж, Blu-ray CEE

Language : Russian

Default : Yes

Forced : No


Audio #2

ID : 3

Format : AC-3

Format/Info : Audio Coding 3

Mode extension : CM (complete main)

Format settings, Endianness : Big

Codec ID : A_AC3

Duration : 1h 32mn

Bit rate mode : Constant

Bit rate : 448 Kbps

Channel(s) : 6 channels

Channel positions : Front: L C R, Side: L R, LFE

Sampling rate : 48.0 KHz

Bit depth : 16 bits

Compression mode : Lossy

Stream size : 296 MiB (3%)

Title : AC3 5.1ch 640 kbps - Многоголосый, Киномания

Language : Russian

Default : No

Forced : No


Audio #3

ID : 4

Format : AC-3

Format/Info : Audio Coding 3

Mode extension : CM (complete main)

Format settings, Endianness : Big

Codec ID : A_AC3

Duration : 1h 32mn

Bit rate mode : Constant

Bit rate : 640 Kbps

Channel(s) : 6 channels

Channel positions : Front: L C R, Side: L R, LFE

Sampling rate : 48.0 KHz

Bit depth : 16 bits

Compression mode : Lossy

Stream size : 423 MiB (5%)

Title : AC3 5.1ch 640 kbps - Авторский, Ю. Живов

Language : Russian

Default : No

Forced : No


Audio #4

ID : 5

Format : AC-3

Format/Info : Audio Coding 3

Mode extension : CM (complete main)

Format settings, Endianness : Big

Codec ID : A_AC3

Duration : 1h 32mn

Bit rate mode : Constant

Bit rate : 640 Kbps

Channel(s) : 6 channels

Channel positions : Front: L C R, Side: L R, LFE

Sampling rate : 48.0 KHz

Bit depth : 16 bits

Compression mode : Lossy

Stream size : 423 MiB (5%)

Title : AC3 5.1ch 640 kbps - Английский

Language : English

Default : No

Forced : No


Text #1

ID : 6

Format : UTF-8

Codec ID : S_TEXT/UTF8

Codec ID/Info : UTF-8 Plain Text

Title : Русские

Language : Russian

Default : No

Forced : No


Text #2

ID : 7

Format : UTF-8

Codec ID : S_TEXT/UTF8

Codec ID/Info : UTF-8 Plain Text

Title : Английские

Language : English

Default : No

Forced : No
Оповестить о раздаче Включить оповещение на почту ( о новом торрент-файле ), когда появится раздача с похожим названием: Парк Юрского периода: Трилогия, Jurassic Park: Trilogy

E-Mail адрес:
Внимание: Если вы не авторизованы, то для вас будет создана временная учетная запись (доступ к аккаунту будет прикреплен в письме).
Похожие файлы
Загрузка / Обновление
Категория Фильмы / HD / Full HD / Blu-Ray / 2K / 4K RSS лента
Добавлен (4 года, 2 месяца назад)
Просмотров 121 раз (a)
Взят 0 раз (a)
Файлы 3, 32.00 GB (34 358 741 916 байт)
Раздал ViKa  (Искать торренты)
Участники
Раздают (отдают): 0 (14), Скачивают (качают): 0 (2), Завершено: 0 (45)
Просматривают

« Душа / Vinyan (2008) BDRip 1080p -†- ¿? -†- Самогонщики / Пес Барбос и необычный кросс (1961) BDRip 720p »

:: Список Комментариев
Нет комментариев.

 Нет комментариев

Поблагодарите нас, взамен, мы будем заливать еще больше раздач!


Счетчики
Рейтинг@Mail.ru Яндекс.Метрика


Поделитесь в социальных сетях


Быстрый Поиск





Спасибо Вам
Мы благодарны этим людям в поддержке сайта:
oiproger
Попади и ты в этот блок, поставь оценку 5 и получи 300 MB к отдаче:
Войти на сайт сейчас.

Правообладателям
По всем вопросам сотрудничества, удаления авторских файлов "пачкой", просьба отписаться по адреcу:
abuse@muz-tracker.net

Наши группы в VK, OK