Самые активные релизы за неделю
Музыка / Мультимедиа Сериалы Фильмы / AVI
Sexy Beach Jazz: The Very Best of Cafe Chill and Summer Relaxing Smooth Jazz Lounge (2016) [MP3|320 Kbps]
  •  Sexy Beach Jazz: The Very Best of Cafe Chill and Summer Relaxing Smooth Jazz Lounge (2016) [MP3|320 Kbps]
  • Aston Grey Project - The Sensual Side (2016) [MP3|320 Kbps]
  •  Dance Paradise: December Party (2016) [MP3|320 Kbps]
  •  Chill In The Summer: Chillout Collection (2016) [MP3|320 Kbps]
  •  Sensitive Deep House (2016) [MP3|320 Kbps]
  •  Songs Dreams: A Place Of Romance (2016) [MP3|251-320 Kbps]
  • Хитовый драйв. Давай устроим Party ( Pop / 2017 )
  • Aston Grey Project - Discography / Jazz
  • John Kirby - The Biggest Little Band In The Land (1938-1941) 1994, Jazz Portraits[APE|Lossless|tracks + .cue]
  • Armin van Buuren - A State Of Trance 800 (Part.3) ( Trance / 2017 )
  •  Sensual Christmas Chill (2016) [MP3|320 Kbps]
  • Def Leppard - Limited Edition CD Singles Collector's Box (1993) 4CD [FLAC|Lossless|image + .cue]

:: Детали раздачи
Раздача является мультитрекерной — учтите, количество раздающих не будет совпадать с количеством участников на сайте (скачивание на клиентской стороне зависит от настроек µTorrent клиент программы, настройки -> Включить DHT, Обмен пирами и Поиск лок-х пиров).
Если висит надпись, пиры по нулям - не бойтесь, возможность скачать повторно раздачу - есть. Попробуйте, в случае отказа - прокоментируйте или нажмите на "Позвать скачавших".
Данная раздача является свободной — учитывается только количество отданного, количество скачанного не фиксируется.

Бугимен. Трилогия / Boogeyman : Trilogy (2005-2008) BDRip 720p GoldenShara Золотой торрент

Скачать Скачать .torrent файл
Смотреть / Слушать онлайн просмотр
Magnet-ссылка
Теги / Метки ужасы, триллер, драма, 2005
Описание
Название: Бугимен. Трилогия

Оригинальное название: Boogeyman : Trilogy

Год выхода: 2005-2008

Жанр: ужасы, триллер, драма



Бугимен / Boogeyman (2005) BDRip 720p от R.G. GoldenShara


Format : Matroska

Format version : Version 4 / Version 2

File size : 2.19 GiB

Duration : 1h 28mn

Overall bit rate : 3 521 Kbps

Encoded date : UTC 2013-04-08 15:44:35

Writing application : mkvmerge v6.1.0 ('Old Devil') built on Mar 2 2013 14:32:37

Writing library : libebml v1.3.0 + libmatroska v1.4.0


Video

ID : 2

Format : AVC

Format/Info : Advanced Video Codec

Format profile : High@L3.1

Format settings, CABAC : Yes

Format settings, ReFrames : 4 frames

Codec ID : V_MPEG4/ISO/AVC

Duration : 1h 28mn

Bit rate : 3 075 Kbps

Width : 1 280 pixels

Height : 720 pixels

Display aspect ratio : 16:9

Frame rate mode : Constant

Frame rate : 23.976 fps

Color space : YUV

Chroma subsampling : 4:2:0

Bit depth : 8 bits

Scan type : Progressive

Bits/(Pixel*Frame) : 0.139

Stream size : 1.86 GiB (85%)

Writing library : x264 core 130 r2273 b3065e6

Encoding settings : cabac=1 / ref=3 / deblock=1:0:0 / analyse=0x3:0x133 / me=hex / subme=7 / psy=1 / psy_rd=1.00:0.00 / mixed_ref=1 / me_range=16 / chroma_me=1 / trellis=1 / 8x8dct=1 / cqm=0 / deadzone=21,11 / fast_pskip=1 / chroma_qp_offset=-2 / threads=6 / lookahead_threads=1 / sliced_threads=0 / nr=0 / decimate=1 / interlaced=0 / bluray_compat=0 / constrained_intra=0 / bframes=3 / b_pyramid=2 / b_adapt=1 / b_bias=0 / direct=1 / weightb=1 / open_gop=0 / weightp=2 / keyint=240 / keyint_min=23 / scenecut=40 / intra_refresh=0 / rc_lookahead=40 / rc=2pass / mbtree=1 / bitrate=3075 / ratetol=1.0 / qcomp=0.60 / qpmin=0 / qpmax=69 / qpstep=4 / cplxblur=20.0 / qblur=0.5 / ip_ratio=1.40 / aq=1:1.00

Language : English

Default : Yes

Forced : No


Audio

ID : 1

Format : AC-3

Format/Info : Audio Coding 3

Mode extension : CM (complete main)

Format settings, Endianness : Big

Codec ID : A_AC3

Duration : 1h 28mn

Bit rate mode : Constant

Bit rate : 448 Kbps

Channel(s) : 6 channels

Channel positions : Front: L C R, Side: L R, LFE

Sampling rate : 48.0 KHz

Bit depth : 16 bits

Compression mode : Lossy

Stream size : 285 MiB (13%)

Default : Yes

Forced : No




Бугимен 2 / Boogeyman 2 (2007) BDRip 720p от R.G. GoldenShara

Format : Matroska

Format version : Version 4 / Version 2

File size : 2.19 GiB

Duration : 1h 28mn

Overall bit rate : 3 521 Kbps

Encoded date : UTC 2013-04-07 18:08:04

Writing application : mkvmerge v6.1.0 ('Old Devil') built on Mar 2 2013 14:32:37

Writing library : libebml v1.3.0 + libmatroska v1.4.0


Video

ID : 2

Format : AVC

Format/Info : Advanced Video Codec

Format profile : High@L3.1

Format settings, CABAC : Yes

Format settings, ReFrames : 4 frames

Codec ID : V_MPEG4/ISO/AVC

Duration : 1h 28mn

Bit rate : 3 073 Kbps

Width : 1 280 pixels

Height : 720 pixels

Display aspect ratio : 16:9

Frame rate mode : Constant

Frame rate : 25.000 fps

Color space : YUV

Chroma subsampling : 4:2:0

Bit depth : 8 bits

Scan type : Progressive

Bits/(Pixel*Frame) : 0.133

Stream size : 1.87 GiB (85%)

Writing library : x264 core 129 r2245 bc13772

Encoding settings : cabac=1 / ref=3 / deblock=1:0:0 / analyse=0x3:0x133 / me=hex / subme=7 / psy=1 / psy_rd=1.00:0.00 / mixed_ref=1 / me_range=16 / chroma_me=1 / trellis=1 / 8x8dct=1 / cqm=0 / deadzone=21,11 / fast_pskip=1 / chroma_qp_offset=-2 / threads=6 / lookahead_threads=1 / sliced_threads=0 / nr=0 / decimate=1 / interlaced=0 / bluray_compat=0 / constrained_intra=0 / bframes=3 / b_pyramid=2 / b_adapt=1 / b_bias=0 / direct=1 / weightb=1 / open_gop=0 / weightp=2 / keyint=250 / keyint_min=25 / scenecut=40 / intra_refresh=0 / rc_lookahead=40 / rc=2pass / mbtree=1 / bitrate=3073 / ratetol=1.0 / qcomp=0.60 / qpmin=0 / qpmax=69 / qpstep=4 / cplxblur=20.0 / qblur=0.5 / ip_ratio=1.40 / aq=1:1.00

Language : English

Default : Yes

Forced : No


Audio

ID : 1

Format : AC-3

Format/Info : Audio Coding 3

Mode extension : CM (complete main)

Format settings, Endianness : Big

Codec ID : A_AC3

Duration : 1h 28mn

Bit rate mode : Constant

Bit rate : 448 Kbps

Channel(s) : 6 channels

Channel positions : Front: L C R, Side: L R, LFE

Sampling rate : 48.0 KHz

Bit depth : 16 bits

Compression mode : Lossy

Stream size : 285 MiB (13%)

Default : Yes

Forced : No




Бугимен 3 / Boogeyman 3 (2008) BDRip 720p от R.G. GoldenShara

Format : Matroska

Format version : Version 4 / Version 2

File size : 2.19 GiB

Duration : 1h 34mn

Overall bit rate : 3 317 Kbps

Encoded date : UTC 2013-04-07 18:26:56

Writing application : mkvmerge v6.1.0 ('Old Devil') built on Mar 2 2013 14:32:37

Writing library : libebml v1.3.0 + libmatroska v1.4.0


Video

ID : 2

Format : AVC

Format/Info : Advanced Video Codec

Format profile : High@L3.1

Format settings, CABAC : Yes

Format settings, ReFrames : 4 frames

Codec ID : V_MPEG4/ISO/AVC

Duration : 1h 34mn

Bit rate : 2 871 Kbps

Width : 1 280 pixels

Height : 720 pixels

Display aspect ratio : 16:9

Frame rate mode : Constant

Frame rate : 24.000 fps

Color space : YUV

Chroma subsampling : 4:2:0

Bit depth : 8 bits

Scan type : Progressive

Bits/(Pixel*Frame) : 0.130

Stream size : 1.85 GiB (85%)

Writing library : x264 core 130 r2273 b3065e6

Encoding settings : cabac=1 / ref=3 / deblock=1:0:0 / analyse=0x3:0x133 / me=hex / subme=7 / psy=1 / psy_rd=1.00:0.00 / mixed_ref=1 / me_range=16 / chroma_me=1 / trellis=1 / 8x8dct=1 / cqm=0 / deadzone=21,11 / fast_pskip=1 / chroma_qp_offset=-2 / threads=6 / lookahead_threads=1 / sliced_threads=0 / nr=0 / decimate=1 / interlaced=0 / bluray_compat=0 / constrained_intra=0 / bframes=3 / b_pyramid=2 / b_adapt=1 / b_bias=0 / direct=1 / weightb=1 / open_gop=0 / weightp=2 / keyint=240 / keyint_min=24 / scenecut=40 / intra_refresh=0 / rc_lookahead=40 / rc=2pass / mbtree=1 / bitrate=2871 / ratetol=1.0 / qcomp=0.60 / qpmin=0 / qpmax=69 / qpstep=4 / cplxblur=20.0 / qblur=0.5 / ip_ratio=1.40 / aq=1:1.00

Language : English

Default : Yes

Forced : No


Audio

ID : 1

Format : AC-3

Format/Info : Audio Coding 3

Mode extension : CM (complete main)

Format settings, Endianness : Big

Codec ID : A_AC3

Duration : 1h 34mn

Bit rate mode : Constant

Bit rate : 448 Kbps

Channel(s) : 6 channels

Channel positions : Front: L C R, Side: L R, LFE

Sampling rate : 48.0 KHz

Bit depth : 16 bits

Compression mode : Lossy

Stream size : 302 MiB (14%)

Default : Yes

Forced : No





Скриншоты
Скриншоты
Оповестить о раздаче Включить оповещение на почту ( о новом торрент-файле ), когда появится раздача с похожим названием: Бугимен. Трилогия, Boogeyman : Trilogy

E-Mail адрес:
Внимание: Если вы не авторизованы, то для вас будет создана временная учетная запись (доступ к аккаунту будет прикреплен в письме).
Похожие файлы
Загрузка / Обновление
Категория Фильмы / HDTV / HD / Blu-Ray RSS лента
Добавлен (3 года, 10 месяцев назад)
Просмотров 94 раз (a)
Взят 2 раз (a)
Файлы 3, 6.56 GB (7 042 554 524 байт)
Оценка
IMDB: 4.1, 23969 голоса (ов), Кинопоиск: 5.142, 7033 голоса (ов)
Раздал ViKa  (Искать торренты)
Участники
Раздают (отдают): 0 (1), Скачивают (качают): 0 (1), Завершено: 0 (20)
Просматривают

« OST - Midnight Club: Street Racing Soundtrack (2000) FLAC -†- ¿? -†- Список Шиндлера / Schindler's List (1993) BDRip 720p | Лицензия »

:: Список Комментариев
Нет комментариев.

 Нет комментариев

Счетчики
Рейтинг@Mail.ru


Поделитесь в социальных сетях


Быстрый Поиск





Спасибо Вам
Мы благодарны этим людям в поддержке сайта:
ilmarr, valmit2011, MMMNNNBBB
Попади и ты в этот блок, поставь оценку 5 и получи 300 MB к отдаче:
Войти на сайт сейчас.

Правообладателям
По всем вопросам сотрудничества, удаления авторских файлов "пачкой", просьба отписаться по адреcу:
abuse@muz-tracker.net

Наши группы в VK, OK