Самые активные релизы за неделю
Музыка / Мультимедиа Мультфильмы
VA - Sexy Chill-Out Occasion Vol. 2
  • VA   -   Sexy Chill-Out Occasion   Vol. 2
  • VA - All I Want For Christmas Is Bass 2016 - 2017 [2016 / MP3 / 320] [House]
  • VA - Promo DJ TOP 100 Remixes Spring 2016
  • VA - Top 100 Best Trap
  • Андрей Саватеев - Карман удачи
  • VA - XXXL Clubничка №300
  • VA   -   Sexy Chill-Out Occasion    Vol. 3
  • VA - LUXEmusic - Dance Super Chart Vol.66
  • VA - TOP 100 Club Tracks (April)
  • VA   -   Ultimate... Guitar Legends
  • VA   -   NOW That's What I Call Music!  Vol.58
  • The Thrillseekers - Escape [2016 / MP3 / 320] [Trance]

:: Детали раздачи
Раздача является мультитрекерной — учтите, количество раздающих не будет совпадать с количеством участников на сайте (скачивание на клиентской стороне зависит от настроек µTorrent клиент программы, настройки -> Включить DHT, Обмен пирами и Поиск лок-х пиров).
Если висит надпись, пиры по нулям - не бойтесь, возможность скачать повторно раздачу - есть. Попробуйте, в случае отказа - прокоментируйте или нажмите на "Позвать скачавших".

Абордаж - Адский шторм; Спокойная жизнь не для нас (2007-2010) FLAC

Скачать Скачать .torrent файл
Смотреть / Слушать онлайн просмотр
Magnet-ссылка
Теги / Метки power, metal, 2007
Описание
Название: Адский шторм/Спокойная жизнь не для нас

Исполнитель: Абордаж

Год: 2007-2010

Жанр: Power-metal
Страна: Россия/Украина


Продолжительность: 01:58:23

Формат/Кодек: FLAC (image+.cue)

Битрейт аудио: lossless


Официальный сайт



2007-Адский шторм

Exact Audio Copy V0.99 prebeta 1 from 25. May 2007


Отчёт EAC об извлечении, выполненном 4. января 2011, 17:52


Абордаж / Адский шторм


Дисковод: ASUS DRW-2014S1 Adapter: 1 ID: 0


Режим чтения : Достоверность

Использование точного потока : Да

Отключение кэша аудио : Да

Использование указателей C2 : Нет


Коррекция смещения при чтении : 6

Способность читать области Lead-in и Lead-out : Нет

Заполнение пропущенных сэмплов тишиной : Да

Удаление блоков с тишиной в начале и конце : Нет

Интерфейс : Встроенный Win32-интерфейс для Win NT/2000


Выходной формат : Внутренние WAV-операции

Формат сэмплов : 44.100 Гц; 16 бит; стерео



TOC извлечённого CD


Трек | Старт | Длительность | Начальный сектор | Конечный сектор

---------------------------------------------------------------------

1 | 0:00.00 | 3:36.28 | 0 | 16227

2 | 3:36.28 | 5:22.08 | 16228 | 40385

3 | 8:58.36 | 4:09.70 | 40386 | 59130

4 | 13:08.31 | 4:08.53 | 59131 | 77783

5 | 17:17.09 | 6:27.16 | 77784 | 106824

6 | 23:44.25 | 4:15.20 | 106825 | 125969

7 | 27:59.45 | 5:02.15 | 125970 | 148634

8 | 33:01.60 | 7:21.41 | 148635 | 181750

9 | 40:23.26 | 4:01.51 | 181751 | 199876

10 | 44:25.02 | 4:29.50 | 199877 | 220101

11 | 48:54.52 | 5:37.33 | 220102 | 245409

12 | 54:32.10 | 6:31.72 | 245410 | 274806



Характеристики диапазона извлечения и сообщения об ошибках


Выбранный диапазон


Имя файла D:MusicАбордаж2008 - Адский Шторм (CD-Maximum)Абордаж - Адский шторм.wav


Пиковый уровень 99.9 %

Качество диапазона 100.0 %

CRC копии BC31665C

Копирование... OK



AccurateRip: сводка


Трек 1 точное извлечение (доверие 2) [CDABE0AE]

Трек 2 точное извлечение (доверие 2) [AE26A4D5]

Трек 3 точное извлечение (доверие 2) [38BBB4A2]

Трек 4 точное извлечение (доверие 2) [36A098FC]

Трек 5 точное извлечение (доверие 2) [F576AD89]

Трек 6 точное извлечение (доверие 2) [61D08058]

Трек 7 точное извлечение (доверие 2) [764E95A8]

Трек 8 точное извлечение (доверие 2) [4B478552]

Трек 9 точное извлечение (доверие 2) [8127917C]

Трек 10 точное извлечение (доверие 2) [8AC3922C]

Трек 11 точное извлечение (доверие 2) [9AAB94C5]

Трек 12 точное извлечение (доверие 2) [7B2C3517]


Ошибок не произошло


Конец отчёта

2010 - Спокойная жизнь не для нас

Exact Audio Copy V0.99 prebeta 5 from 4. May 2009


Отчёт EAC об извлечении, выполненном 23. ноября 2010, 14:43


Абордаж / Спокойная Жизнь не для нас


Дисковод: PIONEER DVD-RW DVR-215D Adapter: 3 ID: 0


Режим чтения : Достоверность

Использование точного потока : Да

Отключение кэша аудио : Да

Использование указателей C2 : Нет


Коррекция смещения при чтении : 48

Способность читать области Lead-in и Lead-out : Нет

Заполнение пропущенных сэмплов тишиной : Да

Удаление блоков с тишиной в начале и конце : Нет

При вычислениях CRC использовались нулевые сэмплы : Да

Интерфейс : Встроенный Win32-интерфейс для Win NT/2000


Выходной формат : Внутренние WAV-операции

Формат сэмплов : 44.100 Гц; 16 бит; стерео



TOC извлечённого CD


Трек | Старт | Длительность | Начальный сектор | Конечный сектор

---------------------------------------------------------------------

1 | 0:00.00 | 5:21.61 | 0 | 24135

2 | 5:21.61 | 7:21.41 | 24136 | 57251

3 | 12:43.27 | 3:09.19 | 57252 | 71445

4 | 15:52.46 | 6:18.33 | 71446 | 99828

5 | 22:11.04 | 4:54.69 | 99829 | 121947

6 | 27:05.73 | 4:23.48 | 121948 | 141720

7 | 31:29.46 | 3:23.31 | 141721 | 156976

8 | 34:53.02 | 6:55.33 | 156977 | 188134

9 | 41:48.35 | 4:16.26 | 188135 | 207360

10 | 46:04.61 | 6:13.17 | 207361 | 235352

11 | 52:18.03 | 5:01.04 | 235353 | 257931



Характеристики диапазона извлечения и сообщения об ошибках


Выбранный диапазон


Имя файла E:обработатьАбордаж - Спокойная Жизнь не для нас.wav


Пиковый уровень 99.7 %

Качество диапазона 100.0 %

CRC копии BC669721

Копирование... OK


Ошибок не произошло



AccurateRip: сводка


Трек 1 нет в базе данных

Трек 2 нет в базе данных

Трек 3 нет в базе данных

Трек 4 нет в базе данных

Трек 5 нет в базе данных

Трек 6 нет в базе данных

Трек 7 нет в базе данных

Трек 8 нет в базе данных

Трек 9 нет в базе данных

Трек 10 нет в базе данных

Трек 11 нет в базе данных


Ни одного трека нет в базе AccurateRip


Конец отчёта
Скриншоты
Похожие файлы
Загрузка / Обновление
Категория Музыка / Мультимедиа RSS лента
Добавлен (3 года, 8 месяцев назад)
Просмотров 78 раз (a)
Взят 8 раз (a)
Файлы 8, 886.19 MB (929 241 511 байт)
Раздал ViKa  (Искать торренты)
Участники
Скачивают (качают): 0 (1), Завершено: 0 (0)
Просматривают

« Сборник - Хитовый Абордаж. Зимний выпуск (2012) MP3 -†- ¿? -†- Stigmatic Chorus - Дискография (1999-2012) MP3 »

:: Список Комментариев
Нет комментариев.

 Нет комментариев

Поблагодарите нас, взамен, мы будем заливать еще больше раздач!

Загрузка...

Счетчики
Рейтинг@Mail.ru Яндекс.Метрика


Поделитесь в социальных сетях


Быстрый Поиск





Спасибо Вам
Мы благодарны этим людям в поддержке сайта:
valmit2011
Попади и ты в этот блок, поставь оценку 5 и получи 300 MB к отдаче:
Войти на сайт сейчас.

Правобладателям
По всем вопросам сотрудничества, удаления авторских файлов "пачкой", просьба отписаться по адреcу:
abuse@muz-tracker.net

Наша группа в VK