Самые активные релизы за неделю
Музыка / Мультимедиа Сериалы Фильмы / AVI / MKV / MP4 Фильмы / HD / Full HD / Blu-Ray / 2K / 4K
Hardsyle Music For Sports Games ( Club / 2017 )
  • Hardsyle Music For Sports Games ( Club / 2017 )
  • Виктор Цой - 55 лет: лучшие песни и хиты ( Рок / 2017 )
  • VA - Hot Summer Dance   [2017 / MP3 / 320] [Dance]
  • Magic Island - Music For Balearic People (Vol.8, Mixed By Roger Shah) (2CD) ( Trance / 2017 )
  • Monstercat Uncaged (Vol.1) ( Dubstep / 2017 )
  • Michael Jackson - 14 Songs From 14 Studio Albums ( Pop / 2017 )
  • VA - Русские Новинки Vol.22 from AGR (2011) MP3
  • DJ Farta - Пацанская сборка в тачку Vol.26 (2017) MP3
  • Хит-парад 70-х - Коллекция (4 CD) / Эстрада / FLAC, APE
  • Death Express: Original Hits Alternative ( Alternative / 2017 )
  • NME Hardstyle: Energy Hit Music Only ( Club / 2017 )
  • неАнгелы - Роман (2013) MP3 + Бонус

:: Детали раздачи
Раздача является мультитрекерной — учтите, количество раздающих не будет совпадать с количеством участников на сайте (скачивание на клиентской стороне зависит от настроек µTorrent клиент программы, настройки -> Включить DHT, Обмен пирами и Поиск лок-х пиров).
Если висит надпись, пиры по нулям - не бойтесь, возможность скачать повторно раздачу - есть. Попробуйте, в случае отказа - прокоментируйте или нажмите на "Позвать скачавших".
Данная раздача является свободной — учитывается только количество отданного, количество скачанного не фиксируется.

Застывшая планета / Замёрзшая планета / Frozen Planet [01-08 из 08] (2011) BDRip 720p RealMT | A1 Золотой торрент

Скачать Скачать .torrent файл (основная ссылка для скачивания файла)
Смотреть / Слушать онлайн просмотр (ссылка для просмотра файла через плагин 'Torrent Stream')
Magnet-ссылка (альтернативная ссылка для скачивания файла)
Теги / Метки документальный, 2011
Описание
Застывшая планета / Замёрзшая планета / Frozen Planet [01-08 из 08] (2011) BDRip 720p RealMT | A1
Русское название: Застывшая планета / Замёрзшая планета

Оригинальное название: Frozen Planet

Год выпуска: 2011

Страна: Великобритания

Жанр: документальный
Продолжительность: смотри спойлер

Перевод: Закадровый, Авторский одноголосный (Владимир Курдов)


Режиссер: Аластер Фовергилл / Alastair Fothergill


Описание: В этом путешествии мы отправимся на край земли. В места где экстремальные условия отрицают само существования жизни.

Однако жизнь здесь не просто существует, она процветает. Приспосабливаясь и изменяясь, приобретая удивительные формы, находя неожиданные способы существования, жизнь еще раз доказывает величие и грандиозность эволюции.

http://www.kinopoisk.ru/rating/652564.gif

1 серия - На краях Земли / To the Ends of the Earth


General

Unique ID : 237086351806550704868983781744517522446 (0xB25D2BA1A0693B4697398334A78B240E)

Complete name : C:UsersveebruarDesktopZastyvshaja planeta [R.G.RealMT] by veebruarZastyvshaja planeta.1.Na krajah Zemli.BDRip.720p[R.G.RealMT] by veebruar.mkv

Format : Matroska

Format version : Version 2

File size : 2.18 GiB

Duration : 58mn 34s

Overall bit rate : 5 324 Kbps

Encoded date : UTC 2013-03-15 23:48:47

Writing application : mkvmerge v5.8.0 ('No Sleep / Pillow') built on Sep 2 2012 15:37:04

Writing library : libebml v1.2.3 + libmatroska v1.3.0


Video

ID : 1

Format : AVC

Format/Info : Advanced Video Codec

Format profile : High@L4.1

Format settings, CABAC : Yes

Format settings, ReFrames : 5 frames

Codec ID : V_MPEG4/ISO/AVC

Duration : 58mn 34s

Bit rate : 5 132 Kbps

Width : 1 280 pixels

Height : 720 pixels

Display aspect ratio : 16:9

Frame rate mode : Constant

Frame rate : 25.000 fps

Color space : YUV

Chroma subsampling : 4:2:0

Bit depth : 8 bits

Scan type : Progressive

Bits/(Pixel*Frame) : 0.223

Stream size : 2.06 GiB (94%)

Writing library : x264 core 125 r2208 d9d2288

Encoding settings : cabac=1 / ref=5 / deblock=1:0:0 / analyse=0x3:0x113 / me=hex / subme=9 / psy=1 / psy_rd=1.00:0.00 / mixed_ref=1 / me_range=16 / chroma_me=1 / trellis=1 / 8x8dct=1 / cqm=0 / deadzone=21,11 / fast_pskip=1 / chroma_qp_offset=-2 / threads=6 / lookahead_threads=1 / sliced_threads=0 / nr=0 / decimate=1 / interlaced=0 / bluray_compat=0 / constrained_intra=0 / bframes=5 / b_pyramid=2 / b_adapt=1 / b_bias=0 / direct=3 / weightb=1 / open_gop=0 / weightp=2 / keyint=250 / keyint_min=25 / scenecut=40 / intra_refresh=0 / rc_lookahead=40 / rc=2pass / mbtree=1 / bitrate=5132 / ratetol=1.0 / qcomp=0.60 / qpmin=0 / qpmax=69 / qpstep=4 / cplxblur=20.0 / qblur=0.5 / ip_ratio=1.40 / aq=1:1.00

Default : Yes

Forced : No


Audio

ID : 2

Format : AC-3

Format/Info : Audio Coding 3

Mode extension : CM (complete main)

Format settings, Endianness : Big

Codec ID : A_AC3

Duration : 58mn 34s

Bit rate mode : Constant

Bit rate : 192 Kbps

Channel(s) : 2 channels

Channel positions : Front: L R

Sampling rate : 48.0 KHz

Bit depth : 16 bits

Compression mode : Lossy

Stream size : 80.4 MiB (4%)

Default : Yes

Forced : No



2 серия - Весна / Spring


General

Unique ID : 203680487327517790835341649097919122396 (0x993B6F59BEA35B6388092B3599394BDC)

Complete name : C:UsersveebruarDesktopZastyvshaja planeta [R.G.RealMT] by veebruarZastyvshaja planeta.2.Vesna.BDRip.720p[R.G.RealMT] by veebruar.mkv

Format : Matroska

Format version : Version 2

File size : 2.18 GiB

Duration : 57mn 41s

Overall bit rate : 5 404 Kbps

Encoded date : UTC 2013-03-16 01:46:13

Writing application : mkvmerge v5.8.0 ('No Sleep / Pillow') built on Sep 2 2012 15:37:04

Writing library : libebml v1.2.3 + libmatroska v1.3.0


Video

ID : 1

Format : AVC

Format/Info : Advanced Video Codec

Format profile : High@L4.1

Format settings, CABAC : Yes

Format settings, ReFrames : 5 frames

Codec ID : V_MPEG4/ISO/AVC

Duration : 57mn 41s

Bit rate : 5 212 Kbps

Width : 1 280 pixels

Height : 720 pixels

Display aspect ratio : 16:9

Frame rate mode : Constant

Frame rate : 25.000 fps

Color space : YUV

Chroma subsampling : 4:2:0

Bit depth : 8 bits

Scan type : Progressive

Bits/(Pixel*Frame) : 0.226

Stream size : 2.06 GiB (94%)

Writing library : x264 core 125 r2208 d9d2288

Encoding settings : cabac=1 / ref=5 / deblock=1:0:0 / analyse=0x3:0x113 / me=hex / subme=9 / psy=1 / psy_rd=1.00:0.00 / mixed_ref=1 / me_range=16 / chroma_me=1 / trellis=1 / 8x8dct=1 / cqm=0 / deadzone=21,11 / fast_pskip=1 / chroma_qp_offset=-2 / threads=6 / lookahead_threads=1 / sliced_threads=0 / nr=0 / decimate=1 / interlaced=0 / bluray_compat=0 / constrained_intra=0 / bframes=5 / b_pyramid=2 / b_adapt=1 / b_bias=0 / direct=3 / weightb=1 / open_gop=0 / weightp=2 / keyint=250 / keyint_min=25 / scenecut=40 / intra_refresh=0 / rc_lookahead=40 / rc=2pass / mbtree=1 / bitrate=5212 / ratetol=1.0 / qcomp=0.60 / qpmin=0 / qpmax=69 / qpstep=4 / cplxblur=20.0 / qblur=0.5 / ip_ratio=1.40 / aq=1:1.00

Default : Yes

Forced : No


Audio

ID : 2

Format : AC-3

Format/Info : Audio Coding 3

Mode extension : CM (complete main)

Format settings, Endianness : Big

Codec ID : A_AC3

Duration : 57mn 41s

Bit rate mode : Constant

Bit rate : 192 Kbps

Channel(s) : 2 channels

Channel positions : Front: L R

Sampling rate : 48.0 KHz

Bit depth : 16 bits

Compression mode : Lossy

Stream size : 79.2 MiB (4%)

Default : Yes

Forced : No



3 серия - Лето / Summer


General

Unique ID : 176863523150512285756788522868642072943 (0x850EACEF91C757F7B289B36AE61EC96F)

Complete name : C:UsersveebruarDesktopZastyvshaja planeta [R.G.RealMT] by veebruarZastyvshaja planeta.3.Leto.BDRip.720p[R.G.RealMT] by veebruar.mkv

Format : Matroska

Format version : Version 2

File size : 2.18 GiB

Duration : 58mn 34s

Overall bit rate : 5 324 Kbps

Encoded date : UTC 2013-03-16 03:32:26

Writing application : mkvmerge v5.8.0 ('No Sleep / Pillow') built on Sep 2 2012 15:37:04

Writing library : libebml v1.2.3 + libmatroska v1.3.0


Video

ID : 1

Format : AVC

Format/Info : Advanced Video Codec

Format profile : High@L4.1

Format settings, CABAC : Yes

Format settings, ReFrames : 5 frames

Codec ID : V_MPEG4/ISO/AVC

Duration : 58mn 34s

Bit rate : 5 130 Kbps

Width : 1 280 pixels

Height : 720 pixels

Display aspect ratio : 16:9

Frame rate mode : Constant

Frame rate : 25.000 fps

Color space : YUV

Chroma subsampling : 4:2:0

Bit depth : 8 bits

Scan type : Progressive

Bits/(Pixel*Frame) : 0.223

Stream size : 2.06 GiB (94%)

Writing library : x264 core 125 r2208 d9d2288

Encoding settings : cabac=1 / ref=5 / deblock=1:0:0 / analyse=0x3:0x113 / me=hex / subme=9 / psy=1 / psy_rd=1.00:0.00 / mixed_ref=1 / me_range=16 / chroma_me=1 / trellis=1 / 8x8dct=1 / cqm=0 / deadzone=21,11 / fast_pskip=1 / chroma_qp_offset=-2 / threads=6 / lookahead_threads=1 / sliced_threads=0 / nr=0 / decimate=1 / interlaced=0 / bluray_compat=0 / constrained_intra=0 / bframes=5 / b_pyramid=2 / b_adapt=1 / b_bias=0 / direct=3 / weightb=1 / open_gop=0 / weightp=2 / keyint=250 / keyint_min=25 / scenecut=40 / intra_refresh=0 / rc_lookahead=40 / rc=2pass / mbtree=1 / bitrate=5130 / ratetol=1.0 / qcomp=0.60 / qpmin=0 / qpmax=69 / qpstep=4 / cplxblur=20.0 / qblur=0.5 / ip_ratio=1.40 / aq=1:1.00

Default : Yes

Forced : No


Audio

ID : 2

Format : AC-3

Format/Info : Audio Coding 3

Mode extension : CM (complete main)

Format settings, Endianness : Big

Codec ID : A_AC3

Duration : 58mn 34s

Bit rate mode : Constant

Bit rate : 192 Kbps

Channel(s) : 2 channels

Channel positions : Front: L R

Sampling rate : 48.0 KHz

Bit depth : 16 bits

Compression mode : Lossy

Stream size : 80.4 MiB (4%)

Default : Yes

Forced : No



4 серия - Осень / Autumn


General

Unique ID : 238805908937227720714316900916861940592 (0xB3A85857F10A9279A9EE41175C753370)

Complete name : C:UsersveebruarDesktopZastyvshaja planeta [R.G.RealMT] by veebruarZastyvshaja planeta.4.Osen.BDRip.720p[R.G.RealMT] by veebruar.mkv

Format : Matroska

Format version : Version 2

File size : 2.18 GiB

Duration : 57mn 37s

Overall bit rate : 5 410 Kbps

Encoded date : UTC 2013-03-16 05:19:40

Writing application : mkvmerge v5.8.0 ('No Sleep / Pillow') built on Sep 2 2012 15:37:04

Writing library : libebml v1.2.3 + libmatroska v1.3.0


Video

ID : 1

Format : AVC

Format/Info : Advanced Video Codec

Format profile : High@L4.1

Format settings, CABAC : Yes

Format settings, ReFrames : 5 frames

Codec ID : V_MPEG4/ISO/AVC

Duration : 57mn 37s

Bit rate : 5 218 Kbps

Width : 1 280 pixels

Height : 720 pixels

Display aspect ratio : 16:9

Frame rate mode : Constant

Frame rate : 25.000 fps

Color space : YUV

Chroma subsampling : 4:2:0

Bit depth : 8 bits

Scan type : Progressive

Bits/(Pixel*Frame) : 0.226

Stream size : 2.06 GiB (94%)

Writing library : x264 core 125 r2208 d9d2288

Encoding settings : cabac=1 / ref=5 / deblock=1:0:0 / analyse=0x3:0x113 / me=hex / subme=9 / psy=1 / psy_rd=1.00:0.00 / mixed_ref=1 / me_range=16 / chroma_me=1 / trellis=1 / 8x8dct=1 / cqm=0 / deadzone=21,11 / fast_pskip=1 / chroma_qp_offset=-2 / threads=6 / lookahead_threads=1 / sliced_threads=0 / nr=0 / decimate=1 / interlaced=0 / bluray_compat=0 / constrained_intra=0 / bframes=5 / b_pyramid=2 / b_adapt=1 / b_bias=0 / direct=3 / weightb=1 / open_gop=0 / weightp=2 / keyint=250 / keyint_min=25 / scenecut=40 / intra_refresh=0 / rc_lookahead=40 / rc=2pass / mbtree=1 / bitrate=5218 / ratetol=1.0 / qcomp=0.60 / qpmin=0 / qpmax=69 / qpstep=4 / cplxblur=20.0 / qblur=0.5 / ip_ratio=1.40 / aq=1:1.00

Default : Yes

Forced : No


Audio

ID : 2

Format : AC-3

Format/Info : Audio Coding 3

Mode extension : CM (complete main)

Format settings, Endianness : Big

Codec ID : A_AC3

Duration : 57mn 37s

Bit rate mode : Constant

Bit rate : 192 Kbps

Channel(s) : 2 channels

Channel positions : Front: L R

Sampling rate : 48.0 KHz

Bit depth : 16 bits

Compression mode : Lossy

Stream size : 79.1 MiB (4%)

Default : Yes

Forced : No



5 серия - Зима / Winter


General

Unique ID : 246922488615497570184196393942582534799 (0xB9C38A9E37E54854AB9C2486F8CBA28F)

Complete name : C:UsersveebruarDesktopZastyvshaja planeta [R.G.RealMT] by veebruarZastyvshaja planeta.5.Zima.BDRip.720p[R.G.RealMT] by veebruar.mkv

Format : Matroska

Format version : Version 2

File size : 2.18 GiB

Duration : 57mn 27s

Overall bit rate : 5 426 Kbps

Encoded date : UTC 2013-03-15 18:54:59

Writing application : mkvmerge v5.8.0 ('No Sleep / Pillow') built on Sep 2 2012 15:37:04

Writing library : libebml v1.2.3 + libmatroska v1.3.0


Video

ID : 1

Format : AVC

Format/Info : Advanced Video Codec

Format profile : High@L4.1

Format settings, CABAC : Yes

Format settings, ReFrames : 5 frames

Codec ID : V_MPEG4/ISO/AVC

Duration : 57mn 27s

Bit rate : 5 233 Kbps

Width : 1 280 pixels

Height : 720 pixels

Display aspect ratio : 16:9

Frame rate mode : Constant

Frame rate : 25.000 fps

Color space : YUV

Chroma subsampling : 4:2:0

Bit depth : 8 bits

Scan type : Progressive

Bits/(Pixel*Frame) : 0.227

Stream size : 2.06 GiB (94%)

Writing library : x264 core 125 r2208 d9d2288

Encoding settings : cabac=1 / ref=5 / deblock=1:0:0 / analyse=0x3:0x113 / me=hex / subme=9 / psy=1 / psy_rd=1.00:0.00 / mixed_ref=1 / me_range=16 / chroma_me=1 / trellis=1 / 8x8dct=1 / cqm=0 / deadzone=21,11 / fast_pskip=1 / chroma_qp_offset=-2 / threads=6 / lookahead_threads=1 / sliced_threads=0 / nr=0 / decimate=1 / interlaced=0 / bluray_compat=0 / constrained_intra=0 / bframes=5 / b_pyramid=2 / b_adapt=1 / b_bias=0 / direct=3 / weightb=1 / open_gop=0 / weightp=2 / keyint=250 / keyint_min=25 / scenecut=40 / intra_refresh=0 / rc_lookahead=40 / rc=2pass / mbtree=1 / bitrate=5233 / ratetol=1.0 / qcomp=0.60 / qpmin=0 / qpmax=69 / qpstep=4 / cplxblur=20.0 / qblur=0.5 / ip_ratio=1.40 / aq=1:1.00

Default : Yes

Forced : No


Audio

ID : 2

Format : AC-3

Format/Info : Audio Coding 3

Mode extension : CM (complete main)

Format settings, Endianness : Big

Codec ID : A_AC3

Duration : 57mn 27s

Bit rate mode : Constant

Bit rate : 192 Kbps

Channel(s) : 2 channels

Channel positions : Front: L R

Sampling rate : 48.0 KHz

Bit depth : 16 bits

Compression mode : Lossy

Stream size : 78.9 MiB (4%)

Default : Yes

Forced : No



6 серия - Последний рубеж / The last frontier


General

Unique ID : 174181383111540437690698243746910955462 (0x830A1D38DD419BDB9D4E080B2BEBE7C6)

Complete name : C:UsersveebruarDesktopZastyvshaja planeta [R.G.RealMT] by veebruarZastyvshaja planeta.6.Poslednij rubezh.BDRip.720p[R.G.RealMT] by veebruar.mkv

Format : Matroska

Format version : Version 2

File size : 2.18 GiB

Duration : 57mn 42s

Overall bit rate : 5 404 Kbps

Encoded date : UTC 2013-03-16 07:03:53

Writing application : mkvmerge v5.8.0 ('No Sleep / Pillow') built on Sep 2 2012 15:37:04

Writing library : libebml v1.2.3 + libmatroska v1.3.0


Video

ID : 1

Format : AVC

Format/Info : Advanced Video Codec

Format profile : High@L4.1

Format settings, CABAC : Yes

Format settings, ReFrames : 5 frames

Codec ID : V_MPEG4/ISO/AVC

Duration : 57mn 42s

Bit rate : 5 210 Kbps

Width : 1 280 pixels

Height : 720 pixels

Display aspect ratio : 16:9

Frame rate mode : Constant

Frame rate : 25.000 fps

Color space : YUV

Chroma subsampling : 4:2:0

Bit depth : 8 bits

Scan type : Progressive

Bits/(Pixel*Frame) : 0.226

Stream size : 2.06 GiB (94%)

Writing library : x264 core 125 r2208 d9d2288

Encoding settings : cabac=1 / ref=5 / deblock=1:0:0 / analyse=0x3:0x113 / me=hex / subme=9 / psy=1 / psy_rd=1.00:0.00 / mixed_ref=1 / me_range=16 / chroma_me=1 / trellis=1 / 8x8dct=1 / cqm=0 / deadzone=21,11 / fast_pskip=1 / chroma_qp_offset=-2 / threads=6 / lookahead_threads=1 / sliced_threads=0 / nr=0 / decimate=1 / interlaced=0 / bluray_compat=0 / constrained_intra=0 / bframes=5 / b_pyramid=2 / b_adapt=1 / b_bias=0 / direct=3 / weightb=1 / open_gop=0 / weightp=2 / keyint=250 / keyint_min=25 / scenecut=40 / intra_refresh=0 / rc_lookahead=40 / rc=2pass / mbtree=1 / bitrate=5210 / ratetol=1.0 / qcomp=0.60 / qpmin=0 / qpmax=69 / qpstep=4 / cplxblur=20.0 / qblur=0.5 / ip_ratio=1.40 / aq=1:1.00

Default : Yes

Forced : No


Audio

ID : 2

Format : AC-3

Format/Info : Audio Coding 3

Mode extension : CM (complete main)

Format settings, Endianness : Big

Codec ID : A_AC3

Duration : 57mn 42s

Bit rate mode : Constant

Bit rate : 192 Kbps

Channel(s) : 2 channels

Channel positions : Front: L R

Sampling rate : 48.0 KHz

Bit depth : 16 bits

Compression mode : Lossy

Stream size : 79.2 MiB (4%)

Default : Yes

Forced : No



7 серия - На тонком льду / On thin ice


General

Unique ID : 210194566309887045018886549114663940452 (0x9E22003DA0CA5C1D97D65D9D45A33164)

Complete name : C:UsersveebruarDesktopZastyvshaja planeta [R.G.RealMT] by veebruarZastyvshaja planeta.7.Na tonkom l'du.BDRip.720p[R.G.RealMT] by veebruar.mkv

Format : Matroska

Format version : Version 2

File size : 2.18 GiB

Duration : 57mn 50s

Overall bit rate : 5 391 Kbps

Encoded date : UTC 2013-03-15 12:07:09

Writing application : mkvmerge v5.8.0 ('No Sleep / Pillow') built on Sep 2 2012 15:37:04

Writing library : libebml v1.2.3 + libmatroska v1.3.0


Video

ID : 1

Format : AVC

Format/Info : Advanced Video Codec

Format profile : High@L4.1

Format settings, CABAC : Yes

Format settings, ReFrames : 5 frames

Codec ID : V_MPEG4/ISO/AVC

Duration : 57mn 50s

Bit rate : 5 198 Kbps

Width : 1 280 pixels

Height : 720 pixels

Display aspect ratio : 16:9

Frame rate mode : Constant

Frame rate : 25.000 fps

Color space : YUV

Chroma subsampling : 4:2:0

Bit depth : 8 bits

Scan type : Progressive

Bits/(Pixel*Frame) : 0.226

Stream size : 2.06 GiB (94%)

Writing library : x264 core 125 r2208 d9d2288

Encoding settings : cabac=1 / ref=5 / deblock=1:0:0 / analyse=0x3:0x113 / me=hex / subme=9 / psy=1 / psy_rd=1.00:0.00 / mixed_ref=1 / me_range=16 / chroma_me=1 / trellis=1 / 8x8dct=1 / cqm=0 / deadzone=21,11 / fast_pskip=1 / chroma_qp_offset=-2 / threads=6 / lookahead_threads=1 / sliced_threads=0 / nr=0 / decimate=1 / interlaced=0 / bluray_compat=0 / constrained_intra=0 / bframes=5 / b_pyramid=2 / b_adapt=1 / b_bias=0 / direct=3 / weightb=1 / open_gop=0 / weightp=2 / keyint=250 / keyint_min=25 / scenecut=40 / intra_refresh=0 / rc_lookahead=40 / rc=2pass / mbtree=1 / bitrate=5198 / ratetol=1.0 / qcomp=0.60 / qpmin=0 / qpmax=69 / qpstep=4 / cplxblur=20.0 / qblur=0.5 / ip_ratio=1.40 / aq=1:1.00

Default : Yes

Forced : No


Audio

ID : 2

Format : AC-3

Format/Info : Audio Coding 3

Mode extension : CM (complete main)

Format settings, Endianness : Big

Codec ID : A_AC3

Duration : 57mn 50s

Bit rate mode : Constant

Bit rate : 192 Kbps

Channel(s) : 6 channels

Channel positions : Front: L C R, Side: L R, LFE

Sampling rate : 48.0 KHz

Bit depth : 16 bits

Compression mode : Lossy

Stream size : 79.4 MiB (4%)

Default : Yes

Forced : No



8 серия - Наука на краю Земли / Science at the end of the Earth


General

Unique ID : 206143784179962357843488975087756589931 (0x9B15D9431A2C6621BADE5D2F4F2B3B6B)

Complete name : C:UsersveebruarDesktopZastyvshaja planeta [R.G.RealMT] by veebruarZastyvshaja planeta.8.Nauka na kraju Zemli.BDRip.720p[R.G.RealMT] by veebruar.mkv

Format : Matroska

Format version : Version 2

File size : 817 MiB

Duration : 21mn 11s

Overall bit rate : 5 389 Kbps

Encoded date : UTC 2013-03-15 12:44:58

Writing application : mkvmerge v5.8.0 ('No Sleep / Pillow') built on Sep 2 2012 15:37:04

Writing library : libebml v1.2.3 + libmatroska v1.3.0


Video

ID : 1

Format : AVC

Format/Info : Advanced Video Codec

Format profile : High@L4.1

Format settings, CABAC : Yes

Format settings, ReFrames : 5 frames

Codec ID : V_MPEG4/ISO/AVC

Duration : 21mn 11s

Bit rate : 5 198 Kbps

Width : 1 280 pixels

Height : 720 pixels

Display aspect ratio : 16:9

Frame rate mode : Constant

Frame rate : 25.000 fps

Color space : YUV

Chroma subsampling : 4:2:0

Bit depth : 8 bits

Scan type : Progressive

Bits/(Pixel*Frame) : 0.226

Stream size : 772 MiB (94%)

Writing library : x264 core 125 r2208 d9d2288

Encoding settings : cabac=1 / ref=5 / deblock=1:0:0 / analyse=0x3:0x113 / me=hex / subme=9 / psy=1 / psy_rd=1.00:0.00 / mixed_ref=1 / me_range=16 / chroma_me=1 / trellis=1 / 8x8dct=1 / cqm=0 / deadzone=21,11 / fast_pskip=1 / chroma_qp_offset=-2 / threads=6 / lookahead_threads=1 / sliced_threads=0 / nr=0 / decimate=1 / interlaced=0 / bluray_compat=0 / constrained_intra=0 / bframes=5 / b_pyramid=2 / b_adapt=1 / b_bias=0 / direct=3 / weightb=1 / open_gop=0 / weightp=2 / keyint=250 / keyint_min=25 / scenecut=40 / intra_refresh=0 / rc_lookahead=40 / rc=2pass / mbtree=1 / bitrate=5198 / ratetol=1.0 / qcomp=0.60 / qpmin=0 / qpmax=69 / qpstep=4 / cplxblur=20.0 / qblur=0.5 / ip_ratio=1.40 / aq=1:1.00

Default : Yes

Forced : No


Audio

ID : 2

Format : AC-3

Format/Info : Audio Coding 3

Mode extension : CM (complete main)

Format settings, Endianness : Big

Codec ID : A_AC3

Duration : 21mn 11s

Bit rate mode : Constant

Bit rate : 192 Kbps

Channel(s) : 2 channels

Channel positions : Front: L R

Sampling rate : 48.0 KHz

Bit depth : 16 bits

Compression mode : Lossy

Stream size : 29.1 MiB (4%)

Default : Yes

Forced : No
Оповестить о раздаче Включить оповещение на почту ( о новом торрент-файле ), когда появится раздача с похожим названием: Застывшая планета, Замёрзшая планета

E-Mail адрес:
Внимание: Если вы не авторизованы, то для вас будет создана временная учетная запись (доступ к аккаунту будет прикреплен в письме).
Похожие файлы
Загрузка / Обновление
Категория Фильмы / HD / Full HD / Blu-Ray / 2K / 4K RSS лента
Добавлен (4 года, 2 месяца назад)
Просмотров 70 раз (a)
Взят 0 раз (a)
Файлы 8, 16.04 GB (17 226 294 039 байт)
Раздал ViKa  (Искать торренты)
Участники
Раздают (отдают): 0 (4), Скачивают (качают): 0 (1), Завершено: 0 (20)
Просматривают

« Excision - X Rated Remixes (2012) MP3 -†- ¿? -†- Варим настоящую водку дома (2013) HDTVRip 720p »

:: Список Комментариев
Нет комментариев.

 Нет комментариев

Поблагодарите нас, взамен, мы будем заливать еще больше раздач!


Счетчики
Рейтинг@Mail.ru Яндекс.Метрика


Поделитесь в социальных сетях


Быстрый Поиск





Спасибо Вам
Мы благодарны этим людям в поддержке сайта:
oiproger
Попади и ты в этот блок, поставь оценку 5 и получи 300 MB к отдаче:
Войти на сайт сейчас.

Правообладателям
По всем вопросам сотрудничества, удаления авторских файлов "пачкой", просьба отписаться по адреcу:
abuse@muz-tracker.net

Наши группы в VK, OK