Самые активные релизы за неделю
Музыка / Мультимедиа Картинки / Фото Сериалы Фильмы / AVI / MKV / MP4 Фильмы / HD / Full HD / Blu-Ray / 2K / 4K
Hardsyle Music For Sports Games ( Club / 2017 )
  • Hardsyle Music For Sports Games ( Club / 2017 )
  • Виктор Цой - 55 лет: лучшие песни и хиты ( Рок / 2017 )
  • Леонид Утёсов - Избранные песни (1930-1970) FLAC от DON Music
  • VA - Дискотека 2017 Deep House - The Best Vol. 3 (2017) MP3 от NNNB
  • Woody Herman - Verve Jazz Masters 54 (1996) MP3
  • Magic Island - Music For Balearic People (Vol.8, Mixed By Roger Shah) (2CD) ( Trance / 2017 )
  • Monstercat Uncaged (Vol.1) ( Dubstep / 2017 )
  • Too Late, Too Late (13 CD) / Blues
  • VA - Русские Новинки Vol.22 from AGR (2011) MP3
  • DJ Farta - Пацанская сборка в тачку Vol.26 (2017) MP3
  • VA - Hot Summer Dance   [2017 / MP3 / 320] [Dance]
  • Michael Jackson - 14 Songs From 14 Studio Albums ( Pop / 2017 )

:: Детали раздачи
Раздача является мультитрекерной — учтите, количество раздающих не будет совпадать с количеством участников на сайте (скачивание на клиентской стороне зависит от настроек µTorrent клиент программы, настройки -> Включить DHT, Обмен пирами и Поиск лок-х пиров).
Если висит надпись, пиры по нулям - не бойтесь, возможность скачать повторно раздачу - есть. Попробуйте, в случае отказа - прокоментируйте или нажмите на "Позвать скачавших".

Игорь Куприянов - 2 альбома (2003-2007) FLAC

Скачать Скачать .torrent файл (основная ссылка для скачивания файла)
Смотреть / Слушать онлайн просмотр (ссылка для просмотра файла через плагин 'Torrent Stream')
Magnet-ссылка (альтернативная ссылка для скачивания файла)
Теги / Метки rock, 2003
Описание
Игорь Куприянов - 2 альбома (2003-2007) FLAC
Название: Семь дней + Адреналин

Исполнитель: Игорь Куприянов

Год: 2003-2007

Жанр: Rock
Страна: Россия


Продолжительность: 01:41:23

Формат/Кодек: FLAC (image+.cue)

Битрейт аудио: lossless


Официальный сайт


2003 - Семь дней

Exact Audio Copy V0.99 prebeta 1 from 25. May 2007


Отчёт EAC об извлечении, выполненном 5. января 2011, 12:43


Игорь Куприянов / Семь дней


Дисковод: ASUS DRW-2014S1 Adapter: 1 ID: 0


Режим чтения : Достоверность

Использование точного потока : Да

Отключение кэша аудио : Да

Использование указателей C2 : Нет


Коррекция смещения при чтении : 6

Способность читать области Lead-in и Lead-out : Нет

Заполнение пропущенных сэмплов тишиной : Да

Удаление блоков с тишиной в начале и конце : Нет

Интерфейс : Встроенный Win32-интерфейс для Win NT/2000


Выходной формат : Внутренние WAV-операции

Формат сэмплов : 44.100 Гц; 16 бит; стерео



TOC извлечённого CD


Трек | Старт | Длительность | Начальный сектор | Конечный сектор

---------------------------------------------------------------------

1 | 0:00.00 | 4:14.39 | 0 | 19088

2 | 4:14.39 | 3:01.05 | 19089 | 32668

3 | 7:15.44 | 4:54.07 | 32669 | 54725

4 | 12:09.51 | 3:38.65 | 54726 | 71140

5 | 15:48.41 | 4:38.47 | 71141 | 92037

6 | 20:27.13 | 4:28.32 | 92038 | 112169

7 | 24:55.45 | 4:57.20 | 112170 | 134464

8 | 29:52.65 | 4:43.13 | 134465 | 155702

9 | 34:36.03 | 4:54.62 | 155703 | 177814

10 | 39:30.65 | 4:21.04 | 177815 | 197393

11 | 43:51.69 | 5:22.01 | 197394 | 221544

12 | 49:13.70 | 3:55.39 | 221545 | 239208



Характеристики диапазона извлечения и сообщения об ошибках


Выбранный диапазон


Имя файла D:MusicКуприянов (Игорь Куприянов)2003 - Семь днейИгорь Куприянов - Семь дней.wav


Пиковый уровень 96.5 %

Качество диапазона 99.9 %

CRC копии F924A89E

Копирование... OK



AccurateRip: сводка


Трек 1 нет в базе данных

Трек 2 нет в базе данных

Трек 3 нет в базе данных

Трек 4 нет в базе данных

Трек 5 нет в базе данных

Трек 6 нет в базе данных

Трек 7 нет в базе данных

Трек 8 нет в базе данных

Трек 9 нет в базе данных

Трек 10 нет в базе данных

Трек 11 нет в базе данных

Трек 12 нет в базе данных


Ошибок не произошло


Конец отчёта


2007 - Адреналин

Exact Audio Copy V0.99 prebeta 1 from 25. May 2007


Отчёт EAC об извлечении, выполненном 5. января 2011, 13:05


Куприянов / Адреналин


Дисковод: ASUS DRW-2014S1 Adapter: 1 ID: 0


Режим чтения : Достоверность

Использование точного потока : Да

Отключение кэша аудио : Да

Использование указателей C2 : Нет


Коррекция смещения при чтении : 6

Способность читать области Lead-in и Lead-out : Нет

Заполнение пропущенных сэмплов тишиной : Да

Удаление блоков с тишиной в начале и конце : Нет

Интерфейс : Встроенный Win32-интерфейс для Win NT/2000


Выходной формат : Внутренние WAV-операции

Формат сэмплов : 44.100 Гц; 16 бит; стерео



TOC извлечённого CD


Трек | Старт | Длительность | Начальный сектор | Конечный сектор

---------------------------------------------------------------------

1 | 0:00.00 | 3:59.26 | 0 | 17950

2 | 3:59.26 | 3:28.24 | 17951 | 33574

3 | 7:27.50 | 4:07.05 | 33575 | 52104

4 | 11:34.55 | 3:00.56 | 52105 | 65660

5 | 14:35.36 | 3:30.28 | 65661 | 81438

6 | 18:05.64 | 3:41.52 | 81439 | 98065

7 | 21:47.41 | 4:22.65 | 98066 | 117780

8 | 26:10.31 | 3:31.11 | 117781 | 133616

9 | 29:41.42 | 3:13.16 | 133617 | 148107

10 | 32:54.58 | 3:36.40 | 148108 | 164347

11 | 36:31.23 | 3:36.44 | 164348 | 180591

12 | 40:07.67 | 3:52.32 | 180592 | 198023

13 | 44:00.24 | 4:13.18 | 198024 | 217016



Характеристики диапазона извлечения и сообщения об ошибках


Выбранный диапазон


Имя файла D:MusicКуприянов (Игорь Куприянов)2007 - АдреналинКуприянов - Адреналин.wav


Пиковый уровень 99.6 %

Качество диапазона 100.0 %

CRC копии A6E5A480

Копирование... OK



AccurateRip: сводка


Трек 1 нет в базе данных

Трек 2 нет в базе данных

Трек 3 нет в базе данных

Трек 4 нет в базе данных

Трек 5 нет в базе данных

Трек 6 нет в базе данных

Трек 7 нет в базе данных

Трек 8 нет в базе данных

Трек 9 нет в базе данных

Трек 10 нет в базе данных

Трек 11 нет в базе данных

Трек 12 нет в базе данных

Трек 13 нет в базе данных


Ошибок не произошло


Конец отчёта
Скриншоты Игорь Куприянов - 2 альбома (2003-2007) FLAC #0
Похожие файлы
Загрузка / Обновление
Категория Музыка / Мультимедиа RSS лента
Добавлен (4 года, 2 месяца назад)
Просмотров 120 раз (a)
Взят 1 раз (a)
Файлы 6, 723.56 MB (758 706 863 байт)
Раздал ViKa  (Искать торренты)
Участники
Раздают (отдают): 0 (1), Скачивают (качают): 0 (1), Завершено: 0 (1)
Просматривают

« Игорь Куприянов - Юбилейный концерт 50:35 (2011) DVDRip, MP3 -†- ¿? -†- Статус - Дискография (1988-1989) MP3 »

:: Список Комментариев
Нет комментариев.

 Нет комментариев

Поблагодарите нас, взамен, мы будем заливать еще больше раздач!


Счетчики
Рейтинг@Mail.ru Яндекс.Метрика


Поделитесь в социальных сетях


Быстрый Поиск





Спасибо Вам
Мы благодарны этим людям в поддержке сайта:
Нет данных для показа
Попади и ты в этот блок, поставь оценку 5 и получи 300 MB к отдаче:
Войти на сайт сейчас.

Правообладателям
По всем вопросам сотрудничества, удаления авторских файлов "пачкой", просьба отписаться по адреcу:
abuse@muz-tracker.net

Наши группы в VK, OK