Самые активные релизы за неделю
Музыка / Мультимедиа Картинки / Фото Сериалы Фильмы / AVI / MKV / MP4 Фильмы / HD / Full HD / Blu-Ray / 2K / 4K
ENIGMATIC - Best Hits (8CD Box Set) ( Electronic / 2017 )
  • ENIGMATIC - Best Hits (8CD Box Set) ( Electronic / 2017 )
  • VA - I Love Music! - Trap Edition Vol. 39 [2017 / MP3 / 320] [Electronic]
  • VA - Лучшие Зимние Хиты Года 7 (2017) MP3
  • Scotch - Italo Disco Band ( Disco / 2017 )
  • Самый Реальный Бит В Твоё Авто (Vol.2) ( Club / 2017 )
  • Retro Party 70-80' ( Pop / 2017 )
  • Rock Blues And Country Compilation ( Rock / 2017 )
  • EXO - The War [2017 / MP3 / 320] [Pop]
  • VA - Boom Hits Vol.757 - 2017 [2017 / MP3 / 320] [Dance]
  • VA - Boom Hits Vol.759   [2017 / MP3 / 320] [Dance]
  • VA - Boom Hits Vol.758   [2017 / MP3 / 320] [Dance]
  • Summer Pop Mania 50+50 ( Pop / 2017 )


Популярные персоны кино из торрент-раздачи

:: Детали раздачи
Раздача является мультитрекерной — учтите, количество раздающих не будет совпадать с количеством участников на сайте (скачивание на клиентской стороне зависит от настроек µTorrent клиент программы, настройки -> Включить DHT, Обмен пирами и Поиск лок-х пиров).
Если висит надпись, пиры по нулям - не бойтесь, возможность скачать повторно раздачу - есть. Попробуйте, в случае отказа - прокоментируйте или нажмите на "Позвать скачавших".
Данная раздача является свободной — учитывается только количество отданного, количество скачанного не фиксируется.

Астерикс и викинги / Asterix and the Vikings / Astrix et les Vikings [2006 / BDRemux] [Animation / Adventure / Comedy] Золотой торрент

Скачать Скачать .torrent файл (основная ссылка для скачивания файла)
Смотреть / Слушать онлайн просмотр (ссылка для просмотра файла через плагин 'Torrent Stream')
Magnet-ссылка (альтернативная ссылка для скачивания файла)
Теги / Метки animation, adventure, comedy, family, fantasy, 2006
Описание
Астерикс и викинги / Asterix and the Vikings / Astrix et les Vikings [2006 / BDRemux] [Animation / Adventure / Comedy]

Оригинальное название: Asterix and the Vikings / Astrix et les Vikings
Название: Астерикс и викинги
Trailer:
Трейлер

Год выхода: 2006
Страна: France | Denmark
Жанр: Animation / Adventure / Comedy / Family / Fantasy
Режиссер: Стефан Фьелдмарк, Джеспер Мюллер
Автор сценариев: Рене Госинни, Альбер Удерзо, Жан-Люк Гусенс
В ролях: : Рожер Карель,Лоран Дойч,Сара Форестье,Жак Франц,Пьер Палмаде
Продолжительность: 01:18:12
Язык: Русский
Перевод: Профессиональный (полное дублирование)
О фильме: Орда бесстрашных викингов приплывает в деревню Астерикса, в надежде понять, что такое страх, ведь они слышали, что страх дает людям крылья. К сожалению, поход викингов ни к чему не приводит, так как в Гальской деревушке боятся лишь того, что небо может упасть на голову. Но, на их счастье, викинги встречают племянника Виталстатистикса, молодого и трусливого Джастфокикса... которого они с радостью похищают и забирают с собой в родные края. Астериксу и Обеликсу теперь придется плыть в холодную Норвегию, чтобы спасти Джастфокикса.
Скриншоты

[spoiler=MI]
File size: 15.7 GiB
Duration: 1h 18mn
Overall bit rate: 28.8 Mbps
Encoded date: UTC 2008-09-28 11:24:47
Writing application: mkvmerge v2.3.0 ('Freak U') built on Sep8 2008 18:32:16
Writing library: libebml v0.7.7 + libmatroska v0.8.1

Video
ID: 1
Format: AVC
Format/Info: Advanced Video Codec
Format profile: High@L4.1
Format settings, CABAC: Yes
Format settings, ReFrames: 4 frames
Muxing mode: Container profile=Unknown@0.0
Codec ID: V_MPEG4/ISO/AVC
Duration: 1h 18mn
Bit rate mode: Variable
Bit rate: 24.4 Mbps
Maximum bit rate: 35.0 Mbps
Width: 1 920 pixels
Height: 1 080 pixels
Display aspect ratio: 16:9
Frame rate: 24.000 fps
Standard: NTSC
Color space: YUV
Chroma subsampling: 4:2:0
Bit depth: 8 bits
Scan type: Progressive
Bits/(Pixel*Frame): 0.491
Stream size: 13.3 GiB (85%)
Title: Астерикс и викинги
Color primaries: BT.709-5, BT.1361, IEC 61966-2-4, SMPTE RP177
Transfer characteristics: BT.709-5, BT.1361
Matrix coefficients: BT.709-5, BT.1361, IEC 61966-2-4 709, SMPTE RP177

Audio #1
ID: 2
Format: DTS
Format/Info: Digital Theater Systems
Codec ID: A_DTS
Duration: 1h 18mn
Bit rate mode: Constant
Bit rate: 755 Kbps
Channel(s): 6 channels
Channel positions: Front: L C R, Side: L R, LFE
Sampling rate: 48.0 KHz
Bit depth: 24 bits
Compression mode: Lossy
Stream size: 422 MiB (3%)
Title: Русский дубляж DTS 5.1 768 kbps
Language: Russian

Audio #2
ID: 3
Format: DTS
Format/Info: Digital Theater Systems
Codec ID: A_DTS
Duration: 1h 18mn
Bit rate mode: Constant
Bit rate: 1 510 Kbps
Channel(s): 6 channels
Channel positions: Front: L C R, Side: L R, LFE
Sampling rate: 48.0 KHz
Bit depth: 24 bits
Compression mode: Lossy
Stream size: 845 MiB (5%)
Title: Английский дубляж DTS 5.1 1536 kbps
Language: English

Audio #3
ID: 4
Format: DTS
Format/Info: Digital Theater Systems
Codec ID: A_DTS
Duration: 1h 18mn
Bit rate mode: Constant
Bit rate: 1 510 Kbps
Channel(s): 6 channels
Channel positions: Front: L C R, Side: L R, LFE
Sampling rate: 48.0 KHz
Bit depth: 24 bits
Compression mode: Lossy
Stream size: 845 MiB (5%)
Title: Французский DTS 5.1 1536 kbps
Language: French


Файл
Качество HDTV: BDRemux
Видео: MPEG-4 AVC, 24.4 Мбит/с, 1920x1080, 24.000 fps
Звук: Русский (DTS, 6 ch, 768 Кбит/с), английский (DTS, 6 ch, 1510 Кбит/с), французский (DTS, 6 ch, 1510 Кбит/с)
Оповестить о раздаче Включить оповещение на почту ( о новом торрент-файле ), когда появится раздача с похожим названием: Астерикс и викинги, Asterix and the Vikings

E-Mail адрес:
Внимание: Если вы не авторизованы, то для вас будет создана временная учетная запись (доступ к аккаунту будет прикреплен в письме).
Похожие файлы
Загрузка / Обновление
Категория Фильмы / HD / Full HD / Blu-Ray / 2K / 4K RSS лента
Добавлен (6 лет, 2 месяца назад)
Просмотров 68 раз (a)
Взят 10 раз (a)
Файлы 1, 15.71 GB (16 872 836 514 байт)
Раздал ViKa  (Искать торренты)
Участники
Скачивают (качают): 0 (1), Завершено: 0 (0)
Просматривают

« Голубая сталь (Вороненая сталь) / Blue Steel [1989 / BDRip 720p] [Action / Thriller / Crime] -†- ¿? -†- Middle Men [2010 / BDRip 720p] [Comedy / Crime / Drama] »

:: Список Комментариев
Нет комментариев.

 Нет комментариев

Поблагодарите нас, взамен, мы будем заливать еще больше раздач!


Счетчики
Рейтинг@Mail.ru Яндекс.Метрика


Поделитесь в социальных сетях


Быстрый Поиск





Спасибо Вам
Мы благодарны этим людям в поддержке сайта:
oiproger
Попади и ты в этот блок, поставь оценку 5 и получи 300 MB к отдаче:
Войти на сайт сейчас.

Правообладателям
По всем вопросам сотрудничества, удаления авторских файлов "пачкой", просьба отписаться по адреcу:
abuse@muz-tracker.net

Наши группы в VK, OK