Самые активные релизы за неделю
Музыка / Мультимедиа Картинки / Фото Сериалы Фильмы / AVI / MKV / MP4 Фильмы / HD / Full HD / Blu-Ray / 2K / 4K
Дискотека СССР №1. Хиты 70х-90х (4) ( Pop / 2017 )
  • Дискотека СССР №1. Хиты 70х-90х (4) ( Pop / 2017 )
  • ENIGMATIC - Best Hits (8CD Box Set) ( Electronic / 2017 )
  • VA - I Love Music! - Trap Edition Vol. 39 [2017 / MP3 / 320] [Electronic]
  • VA - Лучшие Зимние Хиты Года 7 (2017) MP3
  • Самый Реальный Бит В Твоё Авто (Vol.2) ( Club / 2017 )
  • Scotch - Italo Disco Band ( Disco / 2017 )
  • EXO - The War [2017 / MP3 / 320] [Pop]
  • Retro Party 70-80' ( Pop / 2017 )
  • Rock Blues And Country Compilation ( Rock / 2017 )
  • VA - Boom Hits Vol.757 - 2017 [2017 / MP3 / 320] [Dance]
  • VA - Boom Hits Vol.759   [2017 / MP3 / 320] [Dance]
  • VA - Boom Hits Vol.758   [2017 / MP3 / 320] [Dance]


Популярные персоны кино из торрент-раздачи

:: Детали раздачи
Раздача является мультитрекерной — учтите, количество раздающих не будет совпадать с количеством участников на сайте (скачивание на клиентской стороне зависит от настроек µTorrent клиент программы, настройки -> Включить DHT, Обмен пирами и Поиск лок-х пиров).
Если висит надпись, пиры по нулям - не бойтесь, возможность скачать повторно раздачу - есть. Попробуйте, в случае отказа - прокоментируйте или нажмите на "Позвать скачавших".
Данная раздача является свободной — учитывается только количество отданного, количество скачанного не фиксируется.

Голубая сталь (Вороненая сталь) / Blue Steel [1989 / BDRip 720p] [Action / Thriller / Crime] Золотой торрент

Скачать Скачать .torrent файл (основная ссылка для скачивания файла)
Смотреть / Слушать онлайн просмотр (ссылка для просмотра файла через плагин 'Torrent Stream')
Magnet-ссылка (альтернативная ссылка для скачивания файла)
Теги / Метки action, thriller, crime, drama, 1989
Описание
Голубая сталь (Вороненая сталь) / Blue Steel [1989 / BDRip 720p] [Action / Thriller / Crime]

Оригинальное название: Blue Steel
Название: Голубая сталь (Вороненая сталь)
Trailer:
Трейлер

Год выхода: 1989
Страна: США
Жанр: Action / Thriller / Crime / Drama
Режиссер: Кэтрин Бигелоу
Автор сценариев: Кэтрин Бигелоу
В ролях: Джейми Ли Кёртис, Рон Сильвер, Клэнси Браун, Элизабет Пенья, Луиза Флетчер, Филип Боско, Кевин Данн, Ричард Дженкинс, Маркус Флэннаган, Мэри Мара, Скипп Линч, Майк Ходж, Майк Старр, Крис Уокер, Том Сайзмор
Продолжительность: 01:41:53
Язык: Русский
Перевод: Профессиональный (многоголосый, закадровый)
О фильме: Офицер полиции Миган только что закончила специальную полицейскую школу. И в ходе первого же дежурства револьвер грабителя, застреленного ею «по всем правилам», случайно попадает в руки финансового брокера Юджина. В связи с исчезновением важнейшей улики возбуждается расследование «проступка» Миган, а в городе начинается серия убийств, связанных с ее именем. Одержимость оружием Юджина, «безупречного» мужчины с Уолл-Стрит, становится смертельной ловушкой для Миган, которая завязывает с ним романтические отношения. Так как именно он и оказывается маньяком-убийцей.
Скриншоты

[spoiler=MI]
Format: Matroska
File size: 4.83 GiB
Duration: 1h 41mn
Overall bit rate: 6 789 Kbps
Encoded date: UTC 2011-04-07 11:38:09
Writing application: mkvmerge v2.3.0 ('Freak U') built on Sep8 2008 18:32:16
Writing library: libebml v0.7.7 + libmatroska v0.8.1

Video
ID: 1
Format: AVC
Format/Info: Advanced Video Codec
Format profile: High@L4.1
Format settings, CABAC: Yes
Format settings, ReFrames: 5 frames
Codec ID: V_MPEG4/ISO/AVC
Duration: 1h 41mn
Bit rate: 4 638 Kbps
Width: 1 280 pixels
Height: 688 pixels
Display aspect ratio: 1.860
Frame rate: 23.976 fps
Color space: YUV
Chroma subsampling: 4:2:0
Bit depth: 8 bits
Scan type: Progressive
Bits/(Pixel*Frame): 0.220
Stream size: 3.21 GiB (66%)
Writing library: x264 core 114 r1924 08d04a4
Encoding settings: cabac=1 / ref=5 / deblock=1:0:0 / analyse=0x3:0x113 / me=umh / subme=7 / psy=1 / psy_rd=1.00:0.00 / mixed_ref=1 / me_range=16 / chroma_me=1 / trellis=1 / 8x8dct=1 / cqm=0 / deadzone=21,11 / fast_pskip=0 / chroma_qp_offset=-2 / threads=12 / sliced_threads=0 / nr=0 / decimate=1 / interlaced=0 / constrained_intra=0 / bframes=3 / b_pyramid=2 / b_adapt=1 / b_bias=0 / direct=1 / weightb=1 / open_gop=0 / weightp=2 / keyint=250 / keyint_min=23 / scenecut=40 / intra_refresh=0 / rc_lookahead=40 / rc=2pass / mbtree=1 / bitrate=4638 / ratetol=1.0 / qcomp=0.60 / qpmin=0 / qpmax=69 / qpstep=4 / cplxblur=20.0 / qblur=0.5 / ip_ratio=1.40 / aq=1:1.00
Language: English

Audio #1
ID: 2
Format: AC-3
Format/Info: Audio Coding 3
Mode extension: CM (complete main)
Codec ID: A_AC3
Duration: 1h 41mn
Bit rate mode: Constant
Bit rate: 448 Kbps
Channel(s): 6 channels
Channel positions: Front: L C R, Side: L R, LFE
Sampling rate: 48.0 KHz
Bit depth: 16 bits
Compression mode: Lossy
Stream size: 327 MiB (7%)
Title: Mnogogolosuj
Language: Russian

Audio #2
ID: 3
Format: AC-3
Format/Info: Audio Coding 3
Mode extension: CM (complete main)
Codec ID: A_AC3
Duration: 1h 41mn
Bit rate mode: Constant
Bit rate: 192 Kbps
Channel(s): 2 channels
Channel positions: Front: L R
Sampling rate: 48.0 KHz
Bit depth: 16 bits
Compression mode: Lossy
Stream size: 140 MiB (3%)
Title: Gavrilov
Language: Russian

Audio #3
ID: 4
Format: DTS
Format/Info: Digital Theater Systems
Codec ID: A_DTS
Duration: 1h 41mn
Bit rate mode: Constant
Bit rate: 1 510 Kbps
Channel(s): 6 channels
Channel positions: Front: L C R, Side: L R, LFE
Sampling rate: 48.0 KHz
Bit depth: 24 bits
Compression mode: Lossy
Delay relative to video: 11ms
Stream size: 1.07 GiB (22%)
Language: English


Файл
Качество HDTV: BDRip 720p
Видео: MPEG-4 AVC, 4638 Кбит/с, 1280x688, 23.976 кадр/с
Звук: Русский (AC3, 6 ch, 448 Кбит/с)- многоголосый, русский (AC3, 2 ch, 192 Кбит/с)- одноголосый, английский (DTS, 6 ch, 1510 Кбит/с)
Скриншоты Голубая сталь (Вороненая сталь) / Blue Steel [1989 / BDRip 720p] [Action / Thriller / Crime] #0Голубая сталь (Вороненая сталь) / Blue Steel [1989 / BDRip 720p] [Action / Thriller / Crime] #1Голубая сталь (Вороненая сталь) / Blue Steel [1989 / BDRip 720p] [Action / Thriller / Crime] #2Голубая сталь (Вороненая сталь) / Blue Steel [1989 / BDRip 720p] [Action / Thriller / Crime] #3
Похожие файлы
Загрузка / Обновление
Категория Фильмы / HD / Full HD / Blu-Ray / 2K / 4K RSS лента
Добавлен (6 лет, 2 месяца назад)
Просмотров 143 раз (a)
Взят 16 раз (a)
Файлы 1, 4.83 GB (5 188 367 683 байт)
Раздал ViKa  (Искать торренты)
Участники
Скачивают (качают): 0 (1), Завершено: 0 (0)
Просматривают

« Полиция Гавайев / Hawaii Five-0 [LostFilm] [Season 1 / Episode 18] [2011 / HDTVRip] [Action / Detectiv / Crime] -†- ¿? -†- Астерикс и викинги / Asterix and the Vikings / Astrix et les Vikings [2006 / BDRemux] [Animation / Adventure / Comedy] »

:: Список Комментариев
Нет комментариев.

 Нет комментариев

Поблагодарите нас, взамен, мы будем заливать еще больше раздач!


Счетчики
Рейтинг@Mail.ru Яндекс.Метрика


Поделитесь в социальных сетях


Быстрый Поиск





Спасибо Вам
Мы благодарны этим людям в поддержке сайта:
Нет данных для показа
Попади и ты в этот блок, поставь оценку 5 и получи 300 MB к отдаче:
Войти на сайт сейчас.

Правообладателям
По всем вопросам сотрудничества, удаления авторских файлов "пачкой", просьба отписаться по адреcу:
abuse@muz-tracker.net

Наши группы в VK, OK